Поиск

2021 Doris Day - Simply ... "Day" Dreams! {Jube Legends} [24-48]

2021 Doris Day - Simply ... "Day" Dreams! {Jube Legends} [24-48]
Дата издания диска:
4 июня 2021
Издатель (лейбл):
Битрейт аудио:
lossless

Треклист:

◈ 01 - Showtime on Broadway (00:03:05)
◈ 02 - Hollywood Review of 1929 - Singin' in the rain (00:02:36)
◈ 03 - The man who knew too much - Que sera sera (00:02:03)
◈ 04 - Calamity Jane - The black hills of Dakota (00:02:58)
◈ 05 - Calamity Jane - Secret Love (00:03:42)
◈ 06 - Pillow Talk (00:02:09)
◈ 07 - Oklahoma - The surrey with the fringe on the top (00:02:44)
◈ 08 - Oklahoma - Peopole will say we Are in love (00:02:52)
◈ 09 - Lew Leslie's International Review - On the sunny side of the street (00:02:38)
◈ 10 - Annie get your gun - I've got the sun in the evening (00:03:48)
◈ 11 - Annie get your gun - They say It's wonderful (00:02:58)
◈ 12 - Romance on high seas - It's magic (00:03:37)
◈ 13 - Easter Parade - Steppin' out with my baby (00:01:57)
◈ 14 - No No Nanette - Tea for two (00:03:08)
◈ 15 - Whoopee - Makin' Whoopee (00:03:33)
◈ 16 - The New Yorkers - Let's fly away (00:02:15)
◈ 17 - Me too (00:02:38)
◈ 18 - Mister Tap Toe (00:02:13)
◈ 19 - Stars fell on Alabama (00:03:28)
◈ 20 - Ready, willing and able (00:02:24)
◈ 21 - Some like It hot - The lady's in love with you (00:02:16)
◈ 22 - Would I love you (00:03:00)
◈ 23 - You made me love you (00:02:21)
◈ 24 - Teacher's pet (00:02:35)
◈ 25 - Lover, come back (00:02:14)
◈ 26 - One minute to zero - When I fall in love with you (00:02:55)
◈ 27 - The sound of music (00:02:49)
◈ 28 - Pal Joey - Bewitched (00:02:40)
◈ 29 - My fair lady - I've grown accusomed to his face (00:03:12)
◈ 30 - My fair lady - On the street where your live (00:02:58)
◈ 31 - Carousel - You'll never walk alone (00:02:31)
◈ 32 - Wonderful Town - Ohio (00:03:03)
◈ 33 - Here goes the bride - Hello, my lover, goodbye (00:03:35)
◈ 34 - Love me or leave me - I'll never stop loving you (00:03:02)
◈ 35 - South Pacific - I'm in love with a wonderful guy (00:02:13)
◈ 36 - Love me or leave me (00:02:15)
◈ 37 - My love and devotion (00:02:59)
◈ 38 - Shanghai (00:02:20)
◈ 39 - When I'm not near the boy I love (00:02:35)
◈ 40 - Cuttin' capers (00:02:36)
◈ 41 - A guy Is a guy (00:02:40)
◈ 42 - I give my heart to you (00:02:50)
◈ 43 - Hello Everybody - Moon Song (00:03:42)
◈ 44 - Get out and get under the moon (00:02:47)
◈ 45 - Dream a little dream of me (00:03:42)
◈ 46 - Choo-choo-train (00:02:21)
◈ 47 - Domino (00:03:07)
◈ 48 - Scarlet ribbons (00:03:05)
◈ 49 - Why don't we do This more often (00:02:55)
◈ 50 - In the garden (00:03:42)
◈ 51 - Ooh! Bang! Jiggily! Jang! (00:02:22)
◈ 52 - Everybody loves a lover (00:02:42)
◈ 53 - I feel like a feather in the breeze (00:03:05)
◈ 54 - Fit as a fiddle (00:02:54)
◈ 55 - Can Can - I love Paris (00:03:10)
◈ 56 - Bells Are ringing - The party Is over (00:02:53)
◈ 57 - Showtime on Broadway (Reprise) (00:00:33)

Доп. инфо:

• Формат записи | Источник записи: [TR24][OF]
• Наличие водяных знаков: Нет
• Год издания релиза: 2021
• Лейбл: Jube Legends
• Продолжительность: 02:39:56
• Источник: internet
• WEB релиз: ссылка
• Контейнер: FLAC (*.flac)
• Тип рипа: tracks
• Разрядность: 24/48
• Формат: PCM
• Количество каналов: 2.0
• Наличие сканов: front

Лог проверки качества
foobar2000 1.4.2 / Dynamic Range Meter 1.1.1
log date: 2021-06-08 17:59:20

--------------------------------------------------------------------------------
Analyzed: Doris Day / Simply ... "Day" Dreams! (1-55)
          Jack Lawrence / Simply ... "Day" Dreams! (56)
          Sam Coslow / Simply ... "Day" Dreams! (57)
--------------------------------------------------------------------------------

DR         Peak         RMS     Duration Track
--------------------------------------------------------------------------------
DR12      -0.02 dB   -15.23 dB      3:05 01-Showtime on Broadway
DR13      -0.02 dB   -15.01 dB      2:37 02-Hollywood Review of 1929: Singin' in the rain
DR10      -0.02 dB   -12.55 dB      2:04 03-The man who knew too much: Que sera sera
DR10      -0.02 dB   -12.36 dB      2:58 04-Calamity Jane: The black hills of Dakota
DR10      -0.02 dB   -13.31 dB      3:42 05-Calamity Jane: Secret Love
DR9       -0.02 dB   -11.73 dB      2:09 06-Pillow Talk
DR13      -0.02 dB   -16.51 dB      2:45 07-Oklahoma: The surrey with the fringe on the top
DR12      -0.02 dB   -17.30 dB      2:52 08-Oklahoma: Peopole will say we Are in love
DR11      -0.02 dB   -12.88 dB      2:38 09-Lew Leslie's International Review: On the sunny side of the street
DR12      -0.02 dB   -16.52 dB      3:49 10-Annie get your gun: I've got the sun in the evening
DR11      -1.71 dB   -17.47 dB      2:58 11-Annie get your gun: They say It's wonderful
DR9       -0.02 dB   -13.19 dB      3:38 12-Romance on high seas: It's magic
DR11      -0.02 dB   -15.56 dB      1:58 13-Easter Parade: Steppin' out with my baby
DR10      -0.02 dB   -12.10 dB      3:09 14-No No Nanette: Tea for two
DR14      -0.02 dB   -18.81 dB      3:34 15-Whoopee: Makin' Whoopee
DR12      -0.02 dB   -14.29 dB      2:16 16-The New Yorkers: Let's fly away
DR12      -0.02 dB   -15.73 dB      2:39 17-Me too
DR11      -0.02 dB   -12.32 dB      2:13 18-Mister Tap Toe
DR11      -0.02 dB   -13.97 dB      3:29 19-Stars fell on Alabama
DR11      -0.02 dB   -12.51 dB      2:25 20-Ready, willing and able
DR11      -0.02 dB   -15.88 dB      2:16 21-Some like It hot: The lady's in love with you
DR10      -0.02 dB   -12.20 dB      3:00 22-Would I love you
DR10      -0.02 dB   -13.36 dB      2:22 23-You made me love you
DR11      -0.02 dB   -13.55 dB      2:35 24-Teacher's pet
DR11      -0.02 dB   -12.44 dB      2:15 25-Lover, come back
DR10      -0.02 dB   -13.13 dB      2:56 26-One minute to zero: When I fall in love with you
DR12      -0.02 dB   -16.61 dB      2:50 27-The sound of music
DR11      -0.02 dB   -13.85 dB      2:41 28-Pal Joey: Bewitched
DR12      -0.02 dB   -15.54 dB      3:12 29-My fair lady: I've grown accusomed to his face
DR12      -0.02 dB   -15.80 dB      2:58 30-My fair lady: On the street where your live
DR10      -0.02 dB   -15.20 dB      2:31 31-Carousel: You'll never walk alone
DR11      -0.02 dB   -15.40 dB      3:04 32-Wonderful Town: Ohio
DR11      -0.02 dB   -14.61 dB      3:36 33-Here goes the bride: Hello, my lover, goodbye
DR10      -0.02 dB   -12.19 dB      3:02 34-Love me or leave me: I'll never stop loving you
DR11      -0.02 dB   -15.14 dB      2:14 35-South Pacific: I'm in love with a wonderful guy
DR10      -0.02 dB   -12.87 dB      2:16 36-Love me or leave me
DR9       -0.02 dB   -12.18 dB      2:59 37-My love and devotion
DR11      -1.52 dB   -14.73 dB      2:20 38-Shanghai
DR11      -0.02 dB   -14.53 dB      2:36 39-When I'm not near the boy I love
DR15      -0.02 dB   -18.04 dB      2:37 40-Cuttin' capers
DR11      -0.02 dB   -13.61 dB      2:41 41-A guy Is a guy
DR10      -0.02 dB   -11.70 dB      2:50 42-I give my heart to you
DR14      -0.02 dB   -20.04 dB      2:47 44-Get out and get under the moon
DR11      -0.02 dB   -13.86 dB      3:42 45-Dream a little dream of me
DR10      -0.02 dB   -13.12 dB      3:07 47-Domino
DR8       -0.02 dB   -13.98 dB      3:06 48-Scarlet ribbons
DR12      -0.02 dB   -15.23 dB      2:56 49-Why don't we do This more often
DR9       -0.02 dB   -13.26 dB      3:43 50-In the garden
DR11      -0.02 dB   -12.92 dB      2:23 51-Ooh! Bang! Jiggily! Jang!
DR13      -0.02 dB   -16.16 dB      2:43 52-Everybody loves a lover
DR12      -0.02 dB   -16.62 dB      3:05 53-I feel like a feather in the breeze
DR13      -0.02 dB   -17.58 dB      2:55 54-Fit as a fiddle
DR12      -0.02 dB   -17.78 dB      3:11 55-Can Can: I love Paris
DR11      -0.02 dB   -14.98 dB      2:54 56-Bells Are ringing: The party Is over
DR10      -0.02 dB   -13.77 dB      0:33 57-Showtime on Broadway (Reprise)
DR11      -0.02 dB   -12.52 dB      2:21 46-Choo-choo-train
DR13      -0.02 dB   -17.30 dB      3:43 43-Hello Everybody: Moon Song
--------------------------------------------------------------------------------

Number of tracks:  57
Official DR value: DR11

Samplerate:        48000 Hz
Channels:          2
Bits per sample:   24
Bitrate:           1603 kbps
Codec:             FLAC
================================================================================
По всем вопросам пишите личное сообщение пользователю M0p94ok.
09:45
284
Нет комментариев. Ваш будет первым!