Поиск

2021 Dahveed Behroozi - Echos {Sunnyside} [24-96]

2021 Dahveed Behroozi - Echos {Sunnyside} [24-96]
Место записи:
Oktaven Audio, Mount Vernon, New York, USA
Дата издания диска:
4 июня 2021
Издатель (лейбл):
Носитель:
WEB
Формат:
PCM
Тип рипа:
tracks
Контейнер:
FLAC (*.flac)
Количество каналов:
2.0
Разрядность/ЧД:
24/96
Битрейт аудио:
lossless
Наличие сканов:
только обложка

Треклист:

1. Imagery  05:27
2. Chimes  03:48
3. Gilroy  06:40
4. Alliteration  02:23
5. Sendoff  03:32
6. Royal Star  06:14
7. Chimes (Variation)  06:25
8. Tricks  03:30
9. TDB  06:29

Состав:
  • Bass – Thomas Morgan (4)
  • Composed By – Dahveed Behroozi (треков: 1 to 3, 5 to 9), Thomas Morgan (4) (треков: 4)
  • Drums – Billy Mintz
  • Mastered By – Ken Lee
  • Mixed By – Adam Muñoz
  • Piano – Dahveed Behroozi
  • Recorded By, Engineer – Ryan Streber
Лог проверки качества
foobar2000 1.4.2 / Dynamic Range Meter 1.1.1
log date: 2021-06-08 17:58:11

--------------------------------------------------------------------------------
Analyzed: Dahveed Behroozi / Echos
--------------------------------------------------------------------------------

DR         Peak         RMS     Duration Track
--------------------------------------------------------------------------------
DR11      -0.20 dB   -14.54 dB      5:28 01-Imagery
DR12      -0.31 dB   -15.19 dB      3:48 02-Chimes
DR12      -0.20 dB   -14.46 dB      6:41 03-Gilroy
DR14      -4.78 dB   -22.14 dB      2:24 04-Alliteration
DR11      -0.20 dB   -11.78 dB      3:32 05-Sendoff
DR12      -0.20 dB   -15.58 dB      6:14 06-Royal Star
DR10      -0.17 dB   -14.14 dB      6:26 07-Chimes (Variation)
DR11      -1.40 dB   -15.24 dB      3:30 08-Tricks
DR15      -4.20 dB   -24.36 dB      6:29 09-TDB
--------------------------------------------------------------------------------

Number of tracks:  9
Official DR value: DR12

Samplerate:        96000 Hz
Channels:          2
Bits per sample:   24
Bitrate:           3004 kbps
Codec:             FLAC
================================================================================
По всем вопросам пишите личное сообщение пользователю M0p94ok.
16:29
275
Нет комментариев. Ваш будет первым!