Поиск

2020 Alain Bédard & Auguste Quartet - Exalta Calma {Effendi} [24-96]

2020 Alain Bédard & Auguste Quartet - Exalta Calma {Effendi} [24-96]
Стили:
Дата издания диска:
20 марта 2020
Носитель:
WEB
Формат:
PCM
Тип рипа:
tracks
Контейнер:
FLAC (*.flac)
Количество каналов:
2.0
Разрядность/ЧД:
24/96
Битрейт аудио:
lossless
Время звучания:
01:00:07
Наличие сканов:
буклет pdf
Релизёр (источник):
M0p94ok

1. Pou Titi  08:32
2. La silva major II  08:35
3. La chaneleone  05:42
4. Debout au bout du Bout-du-Banc  05:37
5. Sutoli  06:28
6. Queen Ketchup  05:39
7. Not Yet  08:22
8. La meli-melo  05:12
9. Insomnia  05:56

Состав:
  • Mario Allard, alto saxophone, soprano saxophone
  • Félix Stüssi, piano
  • Alain Bédard, double bass
  • Michel Lambert, drums
Лог проверки качества
foobar2000 1.6.2 / Dynamic Range Meter 1.1.1
log date: 2021-09-11 00:21:54

--------------------------------------------------------------------------------
Analyzed: Alain Bédard & Auguste Quartet / Exalta calma
--------------------------------------------------------------------------------

DR         Peak         RMS     Duration Track
--------------------------------------------------------------------------------
DR13      -0.11 dB   -15.66 dB      8:33 01-Pou Titi
DR12      -0.11 dB   -14.95 dB      8:36 02-La silva major II
DR12      -0.11 dB   -14.28 dB      5:42 03-La chaneleone
DR11      -0.11 dB   -12.61 dB      5:38 04-Debout au bout du Bout-du-Banc
DR14      -0.11 dB   -16.17 dB      6:29 05-Sutoli
DR12      -0.11 dB   -14.23 dB      5:39 06-Queen Ketchup
DR13      -0.11 dB   -15.64 dB      8:22 07-Not Yet
DR13      -0.11 dB   -15.06 dB      5:13 08-La meli-melo
DR12      -0.11 dB   -14.57 dB      5:56 09-Insomnia
--------------------------------------------------------------------------------

Number of tracks:  9
Official DR value: DR12

Samplerate:        96000 Hz
Channels:          2
Bits per sample:   24
Bitrate:           2673 kbps
Codec:             FLAC
================================================================================
Приватный:
Да (DHT отключён)
Размер:
1.11 Гб (1,191,431,553 байт) » файлов: 12
Участники:
75 раздают, 0 качают (75 участников всего)
Внешние участники:
--- [ Обновить ]
00:34
470
Нет комментариев. Ваш будет первым!