Поиск

2021 Fabia Mantwill Orchestra - Em.Perience {XJAZZ Music} [24-48]

2021 Fabia Mantwill Orchestra - Em.Perience {XJAZZ Music} [24-48]
Стили:
Дата издания диска:
21 мая 2021
Носитель:
WEB
Формат:
PCM
Тип рипа:
tracks
Контейнер:
FLAC (*.flac)
Количество каналов:
2.0
Разрядность/ЧД:
24/48
Битрейт аудио:
lossless
Время звучания:
00:59:30
Наличие сканов:
только обложка
Страна-производитель диска (релиза):
Germany
Релизёр (источник):
ЯOR

◈ 01 - Ophelia (00:07:56)
◈ 02 - Pjujeck (00:06:48)
◈ 03 - Sasa Ndio Sasa Opening (00:02:45)
◈ 04 - Sasa Ndio Sasa (00:07:15)
◈ 05 - Erwachen (00:05:54)
◈ 06 - Kumbukumbu (00:07:53)
◈ 07 - Trio.logy (00:05:54)
◈ 08 - Melodie de la riviere (00:08:02)
◈ 09 - Festival at High Noon (00:07:01)

Состав:
  • Fabia Mantwill
  • Kurt Rosenwinkel
  • Ben Wendel
  • Nils Landgren
  • Fabia Mantwill Orchestra
Лог проверки качества
foobar2000 1.4.2 / Dynamic Range Meter 1.1.1
log date: 2021-05-22 13:14:55

--------------------------------------------------------------------------------
Analyzed: Fabia Mantwill Orchestra / Em.Perience
--------------------------------------------------------------------------------

DR         Peak         RMS     Duration Track
--------------------------------------------------------------------------------
DR11      -0.50 dB   -14.71 dB      7:56 01-Ophelia
DR9       -0.50 dB   -12.26 dB      6:48 02-Pjujeck
DR11      -0.50 dB   -15.62 dB      2:46 03-Sasa Ndio Sasa Opening
DR8       -0.50 dB   -10.43 dB      7:15 04-Sasa Ndio Sasa
DR10      -0.50 dB   -12.94 dB      5:55 05-Erwachen
DR10      -0.50 dB   -13.24 dB      7:53 06-Kumbukumbu
DR8       -0.50 dB   -11.11 dB      5:54 07-Trio.Logy
DR11      -0.50 dB   -16.90 dB      8:02 08-MГ©lodie De La RiviГЁre
DR8       -0.50 dB   -11.48 dB      7:01 09-Festival At High Noon
--------------------------------------------------------------------------------

Number of tracks:  9
Official DR value: DR9

Samplerate:        48000 Hz
Channels:          2
Bits per sample:   24
Bitrate:           1706 kbps
Codec:             FLAC
================================================================================
08:56
582
Нет комментариев. Ваш будет первым!