Поиск

2021 Raul De Souza - Plenitude {PAO} [24-96]

2021 Raul De Souza - Plenitude {PAO} [24-96]
Стили:
Дата издания диска:
21 мая 2021
Носитель:
WEB
Формат:
PCM
Тип рипа:
tracks
Контейнер:
FLAC (*.flac)
Количество каналов:
2.0
Разрядность/ЧД:
24/96
Битрейт аудио:
lossless
Время звучания:
01:05:39
Наличие сканов:
только обложка
Страна-производитель диска (релиза):
USA
Релизёр (источник):
ЯOR

◈ 01 - Intro (Spoken) (00:00:39)
◈ 02 - Nana (00:05:42)
◈ 03 - To Chico (Spoken) (00:00:35)
◈ 04 - Apesar de Você (00:05:18)
◈ 05 - Funk das Meninas (00:05:24)
◈ 06 - To George (Spoken) (00:00:55)
◈ 07 - Sweet Lucy (00:05:45)
◈ 08 - To Wayne (Spoken) (00:00:28)
◈ 09 - Beauty and the Beast (00:07:51)
◈ 10 - Daisy Mae (00:07:33)
◈ 11 - Nethina Aura (00:04:49)
◈ 12 - Passarim (00:06:01)
◈ 13 - Plenitude (00:05:30)
◈ 14 - To You (Spoken) (00:00:44)
◈ 15 - Tombo in 7-4 (00:07:29)
◈ 16 - So Louco (Solo) (00:00:47)

Состав:
  • Raúl de Souza, trombone
  • Christophe Schweizer, trombone
  • Alex Corrêa, piano
  • Glauco Solter, bass
  • Matheus Jardim, drums
Лог проверки качества
foobar2000 1.4.2 / Dynamic Range Meter 1.1.1
log date: 2021-05-22 12:57:07

--------------------------------------------------------------------------------
Analyzed: Raul De Souza / Plenitude
--------------------------------------------------------------------------------

DR         Peak         RMS     Duration Track
--------------------------------------------------------------------------------
DR17      -5.46 dB   -25.70 dB      0:40 01-Intro (Spoken)
DR11      -0.40 dB   -12.78 dB      5:43 02-NanaМѓ
DR17      -3.58 dB   -25.55 dB      0:35 03-To Chico (Spoken)
DR10      -0.40 dB   -12.81 dB      5:18 04-Apesar de VoceМ‚
DR10      -0.40 dB   -12.25 dB      5:24 05-Funk das Meninas
DR16      -2.92 dB   -23.54 dB      0:56 06-To George (Spoken)
DR9       -0.40 dB   -11.39 dB      5:46 07-Sweet Lucy
DR11      -4.29 dB   -20.23 dB      0:29 08-To Wayne (Spoken)
DR10      -0.40 dB   -13.44 dB      7:52 09-Beauty and the Beast
DR9       -0.40 dB   -11.10 dB      7:33 10-Daisy Mae
DR10      -0.40 dB   -11.99 dB      4:50 11-Nethina Aura
DR10      -0.40 dB   -12.97 dB      6:02 12-Passarim
DR10      -0.40 dB   -13.35 dB      5:31 13-Plenitude
DR17      -3.52 dB   -24.97 dB      0:45 14-To You (Spoken)
DR11      -0.40 dB   -13.54 dB      7:29 15-Tombo in 7/4
DR16      -0.46 dB   -23.76 dB      0:48 16-SoМЃ Louco (Solo)
--------------------------------------------------------------------------------

Number of tracks:  16
Official DR value: DR12

Samplerate:        96000 Hz
Channels:          2
Bits per sample:   24
Bitrate:           2180 kbps
Codec:             FLAC
================================================================================
20:24
531
Нет комментариев. Ваш будет первым!