Вы используете незарегистрированную версию компонента "Вкладки"!

Поиск

2019 Vincent Herring, Bobby Watson, Gary Bartz - Bird at 100 {Smoke Sessions} [24-48]

2019 Vincent Herring, Bobby Watson, Gary Bartz - Bird at 100 {Smoke Sessions} [24-48]
Стили:
Издатель (лейбл):
Доп. инфо:

Формат записи/Источник записи: [TR24][OF]
Наличие водяных знаков: Нет
Год издания: 2019
Продолжительность: 01:12:16
Наличие сканов в содержимом раздачи: Только обложка альбома
Контейнер: FLAC (*.flac)
Тип рипа: tracks
Разрядность: 24/48
Формат: PCM
Количество каналов: 2.0
Источник (релизер): highresaudio.com

Лог проверки качества
foobar2000 1.4.8 / Dynamic Range Meter 1.1.1
log date: 2019-11-28 17:22:06

--------------------------------------------------------------------------------
Analyzed: Vincent Herring, Bobby Watson & Gary Bartz / Bird at 100
--------------------------------------------------------------------------------

DR         Peak         RMS     Duration Track
--------------------------------------------------------------------------------
DR8       -1.20 dB   -10.13 dB      5:45 01-Klactoveedsedstene
DR8       -1.19 dB   -10.74 dB      6:39 02-Bird-ish
DR9       -1.20 dB   -12.64 dB      9:34 03-Lover Man
DR8       -1.20 dB   -11.17 dB      9:59 04-The Hymn
DR11      -1.20 dB   -14.57 dB      8:51 05-These Foolish Things
DR7       -1.20 dB    -9.80 dB      7:30 06-Folklore
DR8       -1.19 dB   -10.97 dB      6:09 07-Bird Lives
DR10      -1.20 dB   -14.54 dB      6:53 08-April in Paris
DR8       -1.20 dB   -10.90 dB     11:02 09-Yardbird Suite
--------------------------------------------------------------------------------

Number of tracks:  9
Official DR value: DR9
Samplerate:        48000 Hz
Channels:          2
Bits per sample:   24
Bitrate:           1748 kbps
Codec:             FLAC
================================================================================
Any questions - support@pro-jazz.com. Есть вопросы - support@pro-jazz.com
14:05
312
Нет комментариев. Ваш будет первым!