Вы используете незарегистрированную версию компонента "Вкладки"!

Поиск

1960 Dave Brubeck Quartet feat. Jimmy Rushing - Brubeck & Rushing {RevOla} [24-44,1]

1960 Dave Brubeck Quartet feat. Jimmy Rushing - Brubeck & Rushing {RevOla} [24-44,1]
Дата записи диска:
29 января - 4 августа 1960
Место записи:
CBS 30th Street Studios, New York, NY
Издатель (лейбл):
Доп. инфо:

Формат записи/Источник записи: [TR24][OF]
Издание: Remastered
Год издания/переиздания диска: 1960/2019
Жанр: Vocal Jazz
Издатель (лейбл): RevOla
Продолжительность: 00:36:15
Наличие сканов в содержимом раздачи: Нет

Контейнер: FLAC (*.flac)
Тип рипа: tracks
Разрядность: 24/44,1
Количество каналов: 2.0

Источник (релизер): Qobuz

Лог проверки качества
foobar2000 1.4.3 / Dynamic Range Meter 1.1.1
log date: 2019-11-27 22:33:36

--------------------------------------------------------------------------------
Analyzed: The Dave Brubeck Quartet / Brubeck & Rushing
--------------------------------------------------------------------------------

DR         Peak         RMS     Duration Track
--------------------------------------------------------------------------------
DR13       0.00 dB   -15.10 dB      2:08 01-There'll Be Some Changes Made (Remastered)
DR13      -0.94 dB   -17.69 dB      4:00 02-My Melancholy Baby (Remastered)
DR13       0.00 dB   -17.01 dB      4:40 03-Blues In The Dark (Remastered)
DR13      -0.59 dB   -15.91 dB      2:30 04-I Never Knew (I Could Love Anyone Like I'm Loving You) (Remastered)
DR14       0.00 dB   -16.80 dB      3:23 05-Ain't Misbehavin' (Remastered)
DR14      -0.38 dB   -17.30 dB      4:12 06-Evenin' (Remastered)
DR14       0.00 dB   -16.05 dB      2:32 07-All By Myself (Remastered)
DR13       0.00 dB   -16.28 dB      4:24 08-River, Stay 'Way From My Door (Remastered)
DR13      -0.77 dB   -16.69 dB      3:31 09-You Can Depend On Me (Remastered)
DR12       0.00 dB   -14.01 dB      2:52 10-Am I Blue? (Remastered)
DR12       0.00 dB   -15.02 dB      2:10 11-Shine On Harvest Moon (Remastered)
--------------------------------------------------------------------------------

Number of tracks:  11
Official DR value: DR13

Samplerate:        44100 Hz
Channels:          2
Bits per sample:   24
Bitrate:           1572 kbps
Codec:             FLAC
================================================================================
Any questions - support@pro-jazz.com. Есть вопросы - support@pro-jazz.com
12:54
298
Нет комментариев. Ваш будет первым!