Вы используете незарегистрированную версию компонента "Вкладки"!

Поиск

1959 Dave Brubeck Quartet - Gone With The Wind (2019) {RevOla} [24-44,1]

1959 Dave Brubeck Quartet - Gone With The Wind (2019) {RevOla} [24-44,1]
Дата записи диска:
22-23 апреля 1959
Место записи:
American Legion Hall, Hollywood, CA
Издатель (лейбл):
Доп. инфо:

Формат записи/Источник записи: [TR24][OF]
Издание: Remastered
Год издания/переиздания диска: 1959/2019
Издатель (лейбл): RevOla
Продолжительность: 00:40:03
Наличие сканов в содержимом раздачи: Нет

Контейнер: FLAC (*.flac)
Тип рипа: tracks
Разрядность: 24/44,1
Количество каналов: 2.0

Источник (релизер): Qobuz

Лог проверки качества
foobar2000 1.4.3 / Dynamic Range Meter 1.1.1
log date: 2019-11-27 13:00:01

--------------------------------------------------------------------------------
Analyzed: The Dave Brubeck Quartet / Gone With The Wind
--------------------------------------------------------------------------------

DR         Peak         RMS     Duration Track
--------------------------------------------------------------------------------
DR14       0.00 dB   -20.90 dB      5:53 01-Swanee River (Remastered)
DR16       0.00 dB   -21.76 dB      7:39 02-The Lonesome Road (Remastered)
DR15      -2.75 dB   -25.45 dB      6:37 03-Georgia On My Mind (Remastered)
DR14      -1.63 dB   -20.33 dB      1:58 04-Camptown Races (Version 1 Remastered)
DR15      -1.91 dB   -22.72 dB      2:08 05-Camptown Races (Version 2 Remastered)
DR14       0.00 dB   -17.45 dB      2:28 06-Short'nin' Bread (Remastered)
DR14      -0.07 dB   -20.53 dB      4:31 07-Basin Street Blues (Remastered)
DR13      -2.29 dB   -20.91 dB      2:28 08-Ol' Man River (Remastered)
DR13      -2.17 dB   -19.16 dB      6:23 09-Gone With The Wind (Remastered)
--------------------------------------------------------------------------------

Number of tracks:  9
Official DR value: DR14

Samplerate:        44100 Hz
Channels:          2
Bits per sample:   24
Bitrate:           1416 kbps
Codec:             FLAC
================================================================================
Any questions - support@pro-jazz.com. Есть вопросы - support@pro-jazz.com
11:40
291
Нет комментариев. Ваш будет первым!