Вы используете незарегистрированную версию компонента "Вкладки"!

Поиск

2015 Mathias Eick - Midwest! {ECM} [24-96]

2015 Mathias Eick - Midwest! {ECM} [24-96]
Издатель (лейбл):
Доп. инфо:

Формат записи/Источник записи: [TR24][OF]
Наличие водяных знаков: Нет
Год издания/переиздания диска: 2015
Издатель (лейбл): ECM Records
Продолжительность: 00:42:44
Наличие сканов в содержимом раздачи: Буклет PDF
Источник (релизер): highresaudio

Контейнер: FLAC (*.flac)
Тип рипа: tracks
Разрядность: 24/96
Формат: PCM
Количество каналов: 2.0

Доп. информация: http://www.mathiaseick.no/

Лог проверки качества
foobar2000 1.1.15 / Dynamic Range Meter 1.1.1
log date: 2019-11-27 10:17:52

--------------------------------------------------------------------------------
Analyzed: Mathias Eick / Midwest
--------------------------------------------------------------------------------

DR         Peak         RMS     Duration Track
--------------------------------------------------------------------------------
DR11       0.00 dB   -14.14 dB      5:13 01-Midwest
DR12      -0.01 dB   -15.18 dB      5:17 02-Hem
DR13      -0.11 dB   -17.82 dB      5:56 03-March
DR13      -0.08 dB   -15.72 dB      4:07 04-At Sea
DR11       0.00 dB   -13.79 dB      4:59 05-Dakota
DR12       0.00 dB   -14.44 dB      5:46 06-Lost
DR13       0.00 dB   -16.21 dB      6:23 07-Fargo
DR13       0.00 dB   -16.77 dB      5:03 08-November
--------------------------------------------------------------------------------

Number of tracks:  8
Official DR value: DR12

Samplerate:        96000 Hz
Channels:          2
Bits per sample:   24
Bitrate:           2692 kbps
Codec:             FLAC
================================================================================
Any questions - support@pro-jazz.com. Есть вопросы - support@pro-jazz.com
23:10
302
Нет комментариев. Ваш будет первым!