Вы используете незарегистрированную версию компонента "Вкладки"!

Поиск

2019 Loran Witteveen Trio - Twin Paradox {Winter & Winter} [24-48]

2019 Loran Witteveen Trio - Twin Paradox {Winter & Winter} [24-48]
Стили:
Доп. инфо:

Формат записи/Источник записи: [TR24][OF]
Наличие водяных знаков: Нет
Год издания: 2019
Издатель (лейбл): Winter & Winter
Продолжительность: 00:46:48
Наличие сканов в содержимом раздачи: Буклет PDF
Контейнер: FLAC (*.flac)
Тип рипа: tracks
Разрядность: 24/88.2
Формат: PCM
Количество каналов: 2.0
Источник (релизер): highresaudio.com

Лог проверки качества
foobar2000 1.4.8 / Dynamic Range Meter 1.1.1
log date: 2019-11-24 23:00:34

--------------------------------------------------------------------------------
Analyzed: Loran Witteveen Trio / Twin Paradox
--------------------------------------------------------------------------------

DR         Peak         RMS     Duration Track
--------------------------------------------------------------------------------
DR12      -0.44 dB   -15.72 dB      4:57 01-Boginda
DR15      -1.39 dB   -21.42 dB      4:44 02-Stained Glass
DR13      -0.46 dB   -17.28 dB      4:55 03-Kassian
DR12      -0.45 dB   -16.31 dB      4:45 04-Bouncing Ball
DR13      -0.46 dB   -17.16 dB      3:09 05-Sidamo
DR12      -0.45 dB   -15.70 dB      4:38 06-Karimikui
DR12      -0.46 dB   -15.71 dB      3:01 07-Tuning
DR15      -1.17 dB   -20.66 dB      1:39 08-Reprise
DR13      -0.46 dB   -16.60 dB      3:45 09-Aza
DR14      -0.45 dB   -19.50 dB      5:02 10-Elasticity
DR12      -0.46 dB   -15.94 dB      6:13 11-Mahembe
--------------------------------------------------------------------------------

Number of tracks:  11
Official DR value: DR13
Samplerate:        88200 Hz
Channels:          2
Bits per sample:   24
Bitrate:           2678 kbps
Codec:             FLAC
================================================================================
Any questions - support@pro-jazz.com. Есть вопросы - support@pro-jazz.com
20:58
258
Нет комментариев. Ваш будет первым!