Вы используете незарегистрированную версию компонента "Вкладки"!

Поиск

1962 Paul Desmond & Gerry Mulligan - Two Of A Mind (2016) {HDTT} [DXD]

1962 Paul Desmond & Gerry Mulligan - Two Of A Mind (2016) {HDTT} [DXD]
Стили:
Дата записи диска:
26 июня - 13 августа 1962
Место записи:
RCA Studio A, New York, NY
Дата издания диска:
1962
Дата переиздания диска:
2016
Доп. инфо:

Формат записи/Источник записи: [DXD][OF]
Наличие водяных знаков: Нет
Год издания/переиздания диска: 1962/2016
Издатель (лейбл): High Definition Tape Transfers
Продолжительность: 00:40:54
Наличие сканов в содержимом раздачи: Буклет PDF

Контейнер: FLAC (*.flac)
Тип рипа: tracks
Разрядность: 24/352,8
Формат: DXD
Количество каналов: 2.0

Источник (релизер): https://www.highdeftapetransfers.com/products/two-of-a-mind-paul-desmond-and-gerry-mulligan

Лог проверки качества
foobar2000 1.4.8 / Замер динамического диапазона (DR) 1.1.1
Дата отчёта:  2019-11-24 13:04:09

--------------------------------------------------------------------------------
Анализ:   Paul Desmond & Gerry Mulligan / Two Of A Mind
--------------------------------------------------------------------------------

DR         Пики         RMS           Продолжительность трека
--------------------------------------------------------------------------------
DR10      -0.99 дБ   -15.74 дБ      5:54 01-All The Things You Are
DR10      -3.13 дБ   -17.11 дБ      8:23 02-Stardust
DR10       0.00 дБ   -14.16 дБ      5:48 03-Two Of A Mind
DR11      -0.93 дБ   -16.12 дБ      6:34 04-Blight Of The Fumble Bee
DR11      -1.77 дБ   -16.28 дБ      7:24 05-The Way You Look Tonight
DR10      -2.10 дБ   -16.31 дБ      6:50 06-Out Of Nowhere
--------------------------------------------------------------------------------

Количество треков: 6
Реальные значения DR: DR10

Частота:   352800 Гц
Каналов:   2
Разрядность:   24
Битрейт:   8002 кбит/с
Кодек:   FLAC
================================================================================
Any questions - support@pro-jazz.com. Есть вопросы - support@pro-jazz.com
14:51
256
Нет комментариев. Ваш будет первым!