Вы используете незарегистрированную версию компонента "Вкладки"!

Поиск

2019 VA - A Little Magic in a Noisy World (Music in the Spirit of Jazz) {ACT Music} [24-44,1-96]

2019 VA - A Little Magic in a Noisy World (Music in the Spirit of Jazz) {ACT Music} [24-44,1-96]
Место записи:
Bari Sorriso Studio
Дата издания диска:
18 мая 2018
Номер по каталогу:
0213124MS1P
Носитель:
WEB
Формат:
PCM
Тип рипа:
tracks+.cue
Контейнер:
FLAC (*.flac)
Количество каналов:
2.0
Разрядность/ЧД:
24/96
Битрейт аудио:
lossless
Время звучания:
01:12:33
Наличие сканов:
web
Страна-производитель диска (релиза):
Germany
Релизёр (источник):
M0p94ok
Лог проверки качества
foobar2000 1.3.16 / Dynamic Range Meter 1.1.1
log date: 2019-02-11 02:43:33

--------------------------------------------------------------------------------
Analyzed: Iiro Rantala / A Little Magic in a Noisy World (Music in the Spirit of Jazz) (1)
          Nils Landgren, Ulf Wakenius & Lars Danielsson / A Little Magic in a Noisy World (Music in the Spirit of Jazz) (2)
--------------------------------------------------------------------------------

DR         Peak         RMS     Duration Track
--------------------------------------------------------------------------------
DR15      -0.10 dB   -20.18 dB      5:32 14-Tears for Esbjörn
DR7       -0.72 dB    -9.52 dB      4:26 01-Come Together
--------------------------------------------------------------------------------

Number of tracks:  2
Official DR value: DR11

Samplerate:        44100 Hz
Channels:          2
Bits per sample:   24
Bitrate:           1441 kbps
Codec:             FLAC
================================================================================

--------------------------------------------------------------------------------
Analyzed: Emile Parisien, Vincent Peirani, Andreas Schaerer & Michael Wollny / A Little Magic in a Noisy World (Music in the Spirit of Jazz) (1)
          Iiro Rantala, Viktoria Tolstoy, Ulf Wakenius, Lars Danielsson & Morten Lund / A Little Magic in a Noisy World (Music in the Spirit of Jazz) (2)
--------------------------------------------------------------------------------

DR         Peak         RMS     Duration Track
--------------------------------------------------------------------------------
DR9       -0.13 dB   -13.74 dB      9:56 13-B&h (Live)
DR10      -0.72 dB   -15.11 dB      6:29 09-Shining on You (Live)
--------------------------------------------------------------------------------

Number of tracks:  2
Official DR value: DR10

Samplerate:        48000 Hz
Channels:          2
Bits per sample:   24
Bitrate:           1634 kbps
Codec:             FLAC
================================================================================

--------------------------------------------------------------------------------
Analyzed: Joachim Kühn with Eric Schaefer & Chris Jennings / A Little Magic in a Noisy World (Music in the Spirit of Jazz) (1)
          NES / A Little Magic in a Noisy World (Music in the Spirit of Jazz) (2)
          Paolo Fresu, Richard Galliano & Jan Lundgren / A Little Magic in a Noisy World (Music in the Spirit of Jazz) (3)
          Wolfgang Haffner with Jukka Perko, Dusko Goykovich, Jan Lundgren, Christopher Dell & Dan Berglund / A Little Magic in a Noisy World (Music in the Spirit of Jazz) (4)
--------------------------------------------------------------------------------

DR         Peak         RMS     Duration Track
--------------------------------------------------------------------------------
DR9       -0.70 dB   -12.86 dB      3:50 11-Barcelona-Wien
DR9       -0.20 dB   -11.36 dB      4:48 04-Ahlam
DR10      -0.17 dB   -12.78 dB      4:02 02-Leklåt
DR10      -0.20 dB   -12.76 dB      5:39 08-Hippie
--------------------------------------------------------------------------------

Number of tracks:  4
Official DR value: DR10

Samplerate:        88200 Hz
Channels:          2
Bits per sample:   24
Bitrate:           2586 kbps
Codec:             FLAC
================================================================================

--------------------------------------------------------------------------------
Analyzed: Cæcilie Norby / A Little Magic in a Noisy World (Music in the Spirit of Jazz) (1)
          David Helbock with Johannes Bär & Andreas Broger / A Little Magic in a Noisy World (Music in the Spirit of Jazz) (2)
          Dieter Ilg with Rainer Böhm & Patrice Héral / A Little Magic in a Noisy World (Music in the Spirit of Jazz) (3)
          Julian & Roman Wasserfuhr with Jörg Brinkmann / A Little Magic in a Noisy World (Music in the Spirit of Jazz) (4)
          Laila Biali / A Little Magic in a Noisy World (Music in the Spirit of Jazz) (5)
          Magnus Lindgren feat. Ida Sand / A Little Magic in a Noisy World (Music in the Spirit of Jazz) (6)
--------------------------------------------------------------------------------

DR         Peak         RMS     Duration Track
--------------------------------------------------------------------------------
DR11      -0.91 dB   -15.92 dB      3:28 07-Silent Ways
DR10      -0.72 dB   -15.20 dB      6:09 05-Seven Days of Falling
DR14      -1.13 dB   -19.42 dB      4:57 12-Air
DR9       -0.72 dB   -12.88 dB      4:09 03-Cello Bello
DR6       -0.55 dB    -9.82 dB      4:35 10-Dolores Angel
DR6       -0.50 dB    -8.27 dB      4:42 06-Brutal Truth
--------------------------------------------------------------------------------

Number of tracks:  6
Official DR value: DR9

Samplerate:        96000 Hz
Channels:          2
Bits per sample:   24
Bitrate:           3078 kbps
Codec:             FLAC
================================================================================
Any questions - support@pro-jazz.com. Есть вопросы - support@pro-jazz.com
18:13
227
Нет комментариев. Ваш будет первым!