Вы используете незарегистрированную версию компонента "Вкладки"!

Поиск

1961 Nina Simone - Nina Simone Sings Ellington (2019 Remastered) {RevOla} [24-44,1]

1961 Nina Simone - Nina Simone Sings Ellington (2019 Remastered) {RevOla} [24-44,1]
Издатель (лейбл):
Битрейт аудио:
lossless
Доп. инфо:

Формат записи/Источник записи: [TR24][OF]
Издание: Remastered
Год издания/переиздания диска: 1961/2019
Издатель (лейбл): RevOla
Продолжительность: 00:32:30
Наличие сканов в содержимом раздачи: Нет

Контейнер: FLAC (*.flac)
Тип рипа: tracks
Разрядность: 24/44,1
Количество каналов: 2.0

Источник (релизер): Qobuz

Лог проверки качества
foobar2000 1.4.3 / Dynamic Range Meter 1.1.1
log date: 2020-08-13 11:55:27

--------------------------------------------------------------------------------
Analyzed: Nina Simone / Nina Simone Sings Ellington
--------------------------------------------------------------------------------

DR         Peak         RMS     Duration Track
--------------------------------------------------------------------------------
DR10      -2.12 dB   -15.74 dB      2:50 01-Do Nothin' Till You Hear From Me (Remastered)
DR11      -4.21 dB   -19.52 dB      4:07 02-I Got It Bad (Remastered)
DR11      -3.78 dB   -19.21 dB      2:27 03-Hey, Buddy Bolden (Remastered)
DR12      -2.93 dB   -18.19 dB      2:36 04-Merry Mending (Remastered)
DR11      -3.46 dB   -18.49 dB      2:56 05-Something To Live For (Remastered)
DR11      -3.99 dB   -18.05 dB      2:25 06-You Better Know It (Remastered)
DR9       -2.70 dB   -15.95 dB      3:01 07-I Like The Sunrise (Remastered)
DR10      -2.65 dB   -16.51 dB      3:46 08-Solitude (Remastered)
DR13      -3.17 dB   -18.52 dB      2:13 09-The Gal From Joe's (Remastered)
DR12      -3.39 dB   -18.40 dB      3:38 10-Satin Doll (Remastered)
DR11      -2.73 dB   -17.33 dB      2:34 11-It Don't Mean A Thing (Remastered)
--------------------------------------------------------------------------------

Number of tracks:  11
Official DR value: DR11

Samplerate:        44100 Hz
Channels:          2
Bits per sample:   24
Bitrate:           1497 kbps
Codec:             FLAC
================================================================================
Any questions - support@pro-jazz.com. Есть вопросы - support@pro-jazz.com
11:10
222
Нет комментариев. Ваш будет первым!