Вы используете незарегистрированную версию компонента "Вкладки"!

Поиск

2013 Hotel Bossa Nova - Na Meia Luz {enja, Yellowbird} [24-44,1]

2013 Hotel Bossa Nova - Na Meia Luz {enja, Yellowbird} [24-44,1]
Издатель (лейбл):
Номер по каталогу:
9721
Носитель:
WEB
Формат:
PCM
Тип рипа:
tracks+.cue
Контейнер:
FLAC (*.flac)
Количество каналов:
2.0
Разрядность/ЧД:
24/44,1
Битрейт аудио:
lossless
Наличие сканов:
web
Страна-производитель диска (релиза):
Germany
Релизёр (источник):
M0p94ok
Лог проверки качества
foobar2000 1.5.5 / Dynamic Range Meter 1.1.1
log date: 2020-09-28 10:48:50

--------------------------------------------------------------------------------
Analyzed: Hotel Bossa Nova / Na Meia Luz
--------------------------------------------------------------------------------

DR         Peak         RMS     Duration Track
--------------------------------------------------------------------------------
DR8       -0.10 dB   -10.00 dB      6:15 01-Feminina
DR8       -0.10 dB   -10.65 dB      5:09 02-Rapidamente
DR9       -0.10 dB   -11.73 dB      5:17 03-Sou Contente
DR10      -0.10 dB   -11.29 dB      6:15 04-Voce
DR9       -0.10 dB   -10.32 dB      3:51 05-Saudade
DR7       -0.10 dB    -9.67 dB      5:31 06-Senhores E Sehnoras
DR8       -0.10 dB   -10.20 dB      5:31 07-Skypeando
DR9       -0.10 dB   -10.54 dB      4:51 08-Ventura
DR9       -0.10 dB   -11.07 dB      4:48 09-Liberdade
--------------------------------------------------------------------------------

Number of tracks:  9
Official DR value: DR9

Samplerate:        44100 Hz
Channels:          2
Bits per sample:   24
Bitrate:           2118 kbps
Codec:             FLAC
================================================================================
Any questions - support@pro-jazz.com. Есть вопросы - support@pro-jazz.com
10:57
221
Нет комментариев. Ваш будет первым!