Поиск

2019 Hands On Strings - Free Ride {Dr Heart Music HEART1011} [24-96]

2019 Hands On Strings - Free Ride {Dr Heart Music HEART1011} [24-96]
Дата издания диска:
26 апреля 2019
Номер по каталогу:
HEART1011
Носитель:
WEB
Формат:
PCM
Тип рипа:
tracks+.cue
Контейнер:
FLAC (*.flac)
Количество каналов:
2.0
Разрядность/ЧД:
24/96
Битрейт аудио:
lossless
Наличие сканов:
web
Страна-производитель диска (релиза):
Germany
Релизёр (источник):
M0p94ok

This album is available on our DC++ hub: dc.pro-jazz.com
Этот альбом доступен на нашем DC++ хабе: dc.pro-jazz.com

Треклист:

01. Masala  02:48
02. Move  06:44
03. Once  05:29
04. Ménage à trois  03:46
05. Fidel Is Dancing on the Sugarloaf  03:18
06. Coming Home  03:48
07. Cocoon  03:42
08. Endless Road  04:42
09. Stomp  03:24
10. Farewell to Larsen C  05:14
11. Uhuru  02:18
12. My Italian Lullaby  03:37

Состав:
  • Stephan Bormann — guitar
  • Thomas Fellow — guitar
Лог проверки качества
foobar2000 1.5.5 / Dynamic Range Meter 1.1.1
log date: 2020-09-28 20:18:28

--------------------------------------------------------------------------------
Analyzed: Hands On Strings / Free Ride
--------------------------------------------------------------------------------

DR         Peak         RMS     Duration Track
--------------------------------------------------------------------------------
DR11      -0.25 dB   -13.72 dB      2:48 01-Masala
DR10      -0.27 dB   -12.35 dB      6:45 02-Move
DR13      -0.37 dB   -16.48 dB      5:29 03-Once
DR10      -0.37 dB   -13.13 dB      3:46 04-Ménage à trois
DR10      -0.27 dB   -11.60 dB      3:18 05-Fidel Is Dancing on the Sugarloaf
DR9       -0.27 dB   -11.80 dB      3:49 06-Coming Home
DR8       -0.27 dB    -9.51 dB      3:42 07-Cocoon
DR6       -0.27 dB    -9.10 dB      4:43 08-Endless Road
DR10      -0.37 dB   -12.19 dB      3:25 09-Stomp
DR9       -0.27 dB   -12.84 dB      5:14 10-Farewell to Larsen C
DR8       -0.27 dB   -10.29 dB      2:19 11-Uhuru
DR11      -0.27 dB   -14.52 dB      3:36 12-My Italian Lullaby
--------------------------------------------------------------------------------

Number of tracks:  12
Official DR value: DR10

Samplerate:        96000 Hz
Channels:          2
Bits per sample:   24
Bitrate:           2761 kbps
Codec:             FLAC
================================================================================
19:34
569
Нет комментариев. Ваш будет первым!