Поиск

2019 Tsode - Innerity {Musiteca} [24-44,1]

2019 Tsode - Innerity {Musiteca} [24-44,1]
Дата издания диска:
2 мая 2019
Носитель:
WEB
Формат:
PCM
Тип рипа:
tracks
Контейнер:
FLAC (*.flac)
Количество каналов:
2.0
Разрядность/ЧД:
24/44,1
Битрейт аудио:
lossless
Время звучания:
00:55:01
Наличие сканов:
только обложка
Наличие водяных знаков:
нет
Релизёр (источник):
M0p94ok

Треклист:

01. En el Camino (Prólogo) 01:24
02. World´s Hope feat. Esteban Vallín 08:57
03. Crossing Stars 05:40
04. Innerity 06:08
05. He Malgastado Mi Tiempo feat. Sergio Zurutuza 05:03
06. Spirit 03:00
07. Alquimia feat. Rubén Alvarez 05:42
08. Simple Things 06:24
09. In The Middle of Nowhere 03:50
10. The Farewell 05:19
11. Anthem of Heaven 03:34

Лог проверки качества
foobar2000 1.6.2 / Dynamic Range Meter 1.1.1
log date: 2021-02-25 23:10:33

--------------------------------------------------------------------------------
Analyzed: Tsode / Innerity
--------------------------------------------------------------------------------

DR         Peak         RMS     Duration Track
--------------------------------------------------------------------------------
DR7       -0.10 dB   -11.15 dB      1:25 01-En el Camino (Prólogo)
DR6       -0.10 dB   -10.06 dB      8:57 02-World´s Hope
DR6        0.00 dB    -9.89 dB      5:41 03-Crossing Stars
DR4       -0.10 dB    -7.44 dB      6:09 04-Innerity
DR6       -0.10 dB    -9.56 dB      5:03 05-He Malgastado Mi Tiempo
DR5       -0.10 dB    -9.26 dB      3:00 06-Spirit
DR6       -0.10 dB   -10.36 dB      5:42 07-Alquimia
DR6       -0.10 dB    -8.45 dB      6:24 08-Simple Things
DR5       -0.10 dB    -7.43 dB      3:50 09-In The Middle Of Nowhere
DR6       -0.10 dB    -9.65 dB      5:19 10-The Farewell
DR7       -0.10 dB   -12.21 dB      3:34 11-Anthem Of Heaven
--------------------------------------------------------------------------------

Number of tracks:  11
Official DR value: DR6

Samplerate:        44100 Hz
Channels:          2
Bits per sample:   24
Bitrate:           1348 kbps
Codec:             FLAC
================================================================================
Приватный:
Нет (DHT включён)
Размер:
589.18 Мб (617,795,034 байт) » файлов: 12
Участники:
0 раздают, 0 качают (0 участников всего)
Внешние участники:
--- [ Обновить ]
No seeders - write personal message to M0p94ok. Нет сидеров - пишите в личку M0p94ok.
00:25
104
Нет комментариев. Ваш будет первым!