Поиск

2019 Neuklang Klangwelten Erleben, Vol. 9 {Neuklang} [24-96]

2019 Neuklang Klangwelten Erleben, Vol. 9 {Neuklang} [24-96]
Стили:
Носитель:
CD
Формат:
PCM
Тип рипа:
tracks
Контейнер:
FLAC (*.flac)
Количество каналов:
2.0
Разрядность/ЧД:
24/96
Битрейт аудио:
lossless
Время звучания:
01:12:41
Наличие сканов:
только обложка
Релизёр (источник):
M0p94ok
Доп. инфо:

Биг-бэнд Тобиаса Беккера объединяет одних из лучших молодых джазовых музыкантов со всей Германии. Со средним возрастом около 25 лет здесь собирается поколение молодых и очень талантливых джазовых музыкантов, которые привлекают к себе внимание как своими собственными проектами, так и в других профессиональных больших группах, таких как SWR Bigband, Sunday Night Orchestra, различные музыкальные группы. постановки (в том числе 'Я никогда не был в Нью-Йорке'), Bigband Jazz Factory и многие другие входить и выходить. Уже один этот факт гарантирует опытный внешний вид и качественный звук. Удовольствие от игры и удовольствие от создания музыки в этом ансамбле объединяет солистов группы, получивших различные призы (например, Yamaha Trumpet Contest, Young Lions Jazz Award и т. Д.), Чтобы сформировать однородный и хорошо отрепетированный джазовый оркестр.

https://www.highresaudio.com/en/album/view/43zj8e/neuklang-klangwelten-erleben-neuklang-klangwelten-erleben-vol-9

Лог проверки качества
foobar2000 1.6.2 / Dynamic Range Meter 1.1.1
log date: 2021-02-25 19:08:11

--------------------------------------------------------------------------------
Analyzed: Ed Partyka Jazz Orchestra / Neuklang Klangwelten Erleben, Vol. 9 (1)
          Focusyear Band / Neuklang Klangwelten Erleben, Vol. 9 (2)
          Marialy Pacheco Trio / Neuklang Klangwelten Erleben, Vol. 9 (3)
--------------------------------------------------------------------------------

DR         Peak         RMS     Duration Track
--------------------------------------------------------------------------------
DR13      -0.73 dB   -15.24 dB      8:42 05-Trouble & Woe
DR10      -0.11 dB   -11.65 dB      9:00 10-After This
DR9       -0.51 dB   -11.89 dB      6:00 01-Metro 
--------------------------------------------------------------------------------

Number of tracks:  3
Official DR value: DR10

Samplerate:        48000 Hz
Channels:          2
Bits per sample:   24
Bitrate:           1713 kbps
Codec:             FLAC
================================================================================

--------------------------------------------------------------------------------
Statistics for: 06-Petite Fleur
Number of samples: 16729776
Duration: 3:10 
--------------------------------------------------------------------------------

                 Left              Right

Peak Value:     -1.03 dB   ---     -1.03 dB   
Avg RMS:       -12.79 dB   ---    -13.23 dB   
DR channel:      8.49 dB   ---      8.64 dB   
--------------------------------------------------------------------------------

Official DR Value: DR9

Samplerate:        88200 Hz
Channels:          2
Bits per sample:   24
Bitrate:           2602 kbps
Codec:             FLAC
================================================================================
--------------------------------------------------------------------------------
Analyzed: Grand Ensemble Koa / Neuklang Klangwelten Erleben, Vol. 9 (1)
          Joachim Caffonnette / Neuklang Klangwelten Erleben, Vol. 9 (2)
          Lada Obradovic Project / Neuklang Klangwelten Erleben, Vol. 9 (3)
          Rémi Dumoulin / Neuklang Klangwelten Erleben, Vol. 9 (4)
          Tobias Becker Bigband / Neuklang Klangwelten Erleben, Vol. 9 (5)
          Vladyslav Sendecki / Neuklang Klangwelten Erleben, Vol. 9 (6)
--------------------------------------------------------------------------------

DR         Peak         RMS     Duration Track
--------------------------------------------------------------------------------
DR9       -0.73 dB   -11.93 dB      8:24 02-Asphodels
DR11      -1.23 dB   -14.73 dB      4:44 07-Perspectives
DR9        0.00 dB   -12.66 dB      8:20 03-Scream
DR9       -0.73 dB   -10.97 dB      3:43 08-Rainer Werner Fassbinder
DR9       -0.73 dB   -12.06 dB      7:36 11-Saint Kitts 
DR13      -0.67 dB   -17.99 dB      6:25 04-Payed View on Tatra
--------------------------------------------------------------------------------

Number of tracks:  6
Official DR value: DR10

Samplerate:        96000 Hz
Channels:          2
Bits per sample:   24
Bitrate:           2571 kbps
Codec:             FLAC
================================================================================
No seeders - write personal message to M0p94ok. Any questions - support@pro-jazz.com.
Нет сидеров - пишите в личку M0p94ok. Есть вопросы - support@pro-jazz.com
20:29
144
Нет комментариев. Ваш будет первым!