Поиск

2019 Tristan - The Spice of Five {Isolde ISOTR 609808} [24-44.1]

2019 Tristan - The Spice of Five {Isolde ISOTR 609808} [24-44.1]
Дата издания диска:
5 июня 2019
Номер по каталогу:
ISOTR 609808
Носитель:
CD
Формат:
PCM
Тип рипа:
tracks
Контейнер:
FLAC (*.flac)
Количество каналов:
2.0
Разрядность/ЧД:
24/44,1
Битрейт аудио:
lossless
Время звучания:
00:49:16
Наличие сканов:
только обложка
Страна-производитель диска (релиза):
Netherlands
Релизёр (источник):
M0p94ok
Доп. инфо:

В Tristan джаз, фьюжн и соул легко сливаются воедино. Группа, которая может соревноваться на международном уровне с громкими именами из этих жанров. Пришло время познакомить более широкую аудиторию с этой музыкальной жемчужиной, которая, на этот раз, не родом из Англии или США, а «просто» из Нидерландов. Музыку Тристана лучше всего можно охарактеризовать как «приятную на ощупь винтажную кислотную джазовую музыку» с энергией, атмосферой и звучанием сегодняшнего дня, которую исполняют одни из лучших поп / джазовых музыкантов Европы. Тристан напоминает такие группы, как Tower of Power, Snarky Puppy и классические эйсид-джазовые группы, такие как Incognito и Brand New Heavies. Для всех них все дело в «высокоэнергетических грувах». Но качество аранжировок и композиций делает Тристана уникальным образованием. Оба дебютных альбома «Full Power» (2014), «2nd Phase» (2015) и «Lifestyle» (2016) вызвали международную цепную реакцию на положительные отзывы, обзоры и трансляцию. И «Full Power», и сиквел «2nd Phase» заняли первое место в английских чартах соулчартов. Отчасти благодаря этому успеху группа гастролировала по всему миру: Япония, Польша, Великобритания, Германия, Румыния, Марокко и многие другие. В 2017 году диск «Live in Concert» был издан во всем мире. Логическим продолжением для группы является «The Spice of Five», уже пятый альбом Тристана! Записано только на «ядро» группы из 5 человек. Чистый, личный, энергичный и полный свежих новых композиций, но без потери «звука Тристана». Кроме того, группа в этом составе существует уже пять лет. Достаточно поводов для вечеринки!

Лог проверки качества
foobar2000 1.6.2 / Dynamic Range Meter 1.1.1
log date: 2021-02-26 16:26:56

--------------------------------------------------------------------------------
Analyzed: Tristan / The Spice of Five
--------------------------------------------------------------------------------

DR         Peak         RMS     Duration Track
--------------------------------------------------------------------------------
DR7        0.00 dB    -8.43 dB      3:59 01-Hands Up
DR7        0.00 dB    -8.73 dB      3:28 02-I Left My Jacket In The Van
DR8        0.00 dB    -9.92 dB      3:14 03-1985
DR7        0.00 dB    -8.45 dB      4:54 04-Amplify
DR10       0.00 dB   -11.60 dB      6:13 05-Where Do We Go From Here
DR8        0.00 dB   -10.23 dB      4:54 06-First You Believe
DR8        0.00 dB    -9.60 dB      3:43 07-Bring it On
DR7       -0.02 dB    -9.36 dB      3:59 08-Neon Girls
DR9       -0.02 dB   -10.07 dB      3:28 09-Don’t Skip This
DR7        0.00 dB    -8.79 dB      3:05 10-Night Train
DR8        0.00 dB    -9.94 dB      3:43 11-Down Town
DR10       0.00 dB   -11.55 dB      4:40 12-Travel
--------------------------------------------------------------------------------

Number of tracks:  12
Official DR value: DR8

Samplerate:        44100 Hz
Channels:          2
Bits per sample:   24
Bitrate:           1629 kbps
Codec:             FLAC
================================================================================
No seeders - write personal message to M0p94ok. Any questions - support@pro-jazz.com.
Нет сидеров - пишите в личку M0p94ok. Есть вопросы - support@pro-jazz.com
17:39
151
Нет комментариев. Ваш будет первым!