Поиск

2019 Tom Eaton - How It Happened {Spotted Peccary SPM 4001} [24-44.1]

2019 Tom Eaton - How It Happened {Spotted Peccary SPM 4001} [24-44.1]
Дата издания диска:
19 апреля 2019
Номер по каталогу:
Spotted Peccary SPM 4001
Носитель:
WEB
Формат:
PCM
Тип рипа:
tracks
Контейнер:
FLAC (*.flac)
Количество каналов:
2.0
Разрядность/ЧД:
24/44,1
Битрейт аудио:
lossless
Время звучания:
01:10:21
Наличие сканов:
только обложка
Наличие водяных знаков:
нет
Страна-производитель диска (релиза):
USA
Релизёр (источник):
M0p94ok

Треклист:

1. Ice  05:37
2. An Unexpected Opening  07:57
3. Mk, and How It Happened  07:18
4. The Slow River  09:21
5. Later, At Night, By the Lake  06:58
6. Genezen  13:00
7. The Fog and the Lifting  06:24
8. Until Her Eyelids Flutter Open  13:46

Лог проверки качества
foobar2000 1.6.2 / Dynamic Range Meter 1.1.1
log date: 2021-02-27 16:05:54

--------------------------------------------------------------------------------
Analyzed: Tom Eaton / How It Happened
--------------------------------------------------------------------------------

DR         Peak         RMS     Duration Track
--------------------------------------------------------------------------------
DR11      -0.48 dB   -15.38 dB      5:37 01-Ice
DR10      -0.48 dB   -15.11 dB      7:58 02-An Unexpected Opening
DR11      -0.48 dB   -14.32 dB      7:19 03-Mk, and How It Happened
DR12      -0.48 dB   -16.67 dB      9:21 04-The Slow River
DR12      -0.48 dB   -17.63 dB      6:58 05-Later, At Night, By the Lake
DR12      -2.18 dB   -16.68 dB     13:00 06-Genezen
DR11      -0.48 dB   -15.86 dB      6:25 07-The Fog and the Lifting
DR13      -3.25 dB   -19.95 dB     13:47 08-Until Her Eyelids Flutter Open
--------------------------------------------------------------------------------

Number of tracks:  8
Official DR value: DR11

Samplerate:        44100 Hz
Channels:          2
Bits per sample:   24
Bitrate:           1182 kbps
Codec:             FLAC
================================================================================
Приватный:
Нет (DHT включён)
Размер:
600.73 Мб (629,915,981 байт) » файлов: 10
Участники:
3 раздают, 1 качают (4 участников всего)
Внешние участники:
--- [ Обновить ]
No seeders - write personal message to M0p94ok. Any questions - support@pro-jazz.com.
Нет сидеров - пишите в личку M0p94ok. Есть вопросы - support@pro-jazz.com
17:13
111
Нет комментариев. Ваш будет первым!