Поиск

1973 Freddie Hubbard & Stanley Turrentine - In Concert, Vol.2 (2017) {CTI 6044} [24-192]

1973 Freddie Hubbard & Stanley Turrentine - In Concert, Vol.2 (2017) {CTI 6044} [24-192]
Дата записи диска:
3 марта - 4 марта 1973
Место записи:
Chicago Opera House, Chicago, IL, USA; Ford Auditorium, Detroit, MI, USA
Издатель (лейбл):
Номер по каталогу:
6044
Битрейт аудио:
lossless
Доп. инфо:

Формат записи/Источник записи: [TR24][OF]
Издание: Remastered
Год издания/переиздания диска: 1973/2017
Продолжительность: 00:41:49
Наличие сканов в содержимом раздачи: Нет

Контейнер: FLAC (*.flac)
Тип рипа: tracks
Разрядность: 24/192
Количество каналов: 2.0

Источник (релизер): King Records

Лог проверки качества
foobar2000 1.4.3 / Dynamic Range Meter 1.1.1
log date: 2020-12-26 11:32:14

--------------------------------------------------------------------------------
Analyzed: Freddie Hubbard, Stanley Turrentine, with Ron Carter, Herbie Hancock, Jack DeJohnette, Eric Gale / In Concert Volume Two
--------------------------------------------------------------------------------

DR         Peak         RMS     Duration Track
--------------------------------------------------------------------------------
DR12      -0.10 dB   -15.56 dB      9:31 01-Hornets (Chicago Opera House, Chicago, March 3, 1973)
DR12      -5.34 dB   -27.14 dB      1:26 02-Interlude (Chicago Opera House, Chicago, March 3, 1973)
DR11      -0.10 dB   -13.92 dB      9:47 03-Hornets (Ford Auditorium, Detroit, March 4, 1973)
DR13      -0.10 dB   -16.21 dB     21:08 04-Gibraltar (Ford Auditorium, Detroit, March 4, 1973)
--------------------------------------------------------------------------------

Number of tracks:  4
Official DR value: DR12

Samplerate:        192000 Hz
Channels:          2
Bits per sample:   24
Bitrate:           5369 kbps
Codec:             FLAC
================================================================================
No seeders - write personal message to M0p94ok. Any questions - support@pro-jazz.com.
Нет сидеров - пишите в личку M0p94ok. Есть вопросы - support@pro-jazz.com
16:43
140
Нет комментариев. Ваш будет первым!