Поиск

2015 Tom Rainey Trio - Hotel Grief {Intakt CD256} [24-44.1]

2015 Tom Rainey Trio - Hotel Grief {Intakt CD256} [24-44.1]
Стили:
Дата записи диска:
30 декабря 2013
Место записи:
Cornelia Street Café, NYC
Дата издания диска:
30 октября 2015
Издатель (лейбл):
Номер по каталогу:
CD256
Носитель:
WEB
Формат:
PCM
Тип рипа:
tracks
Контейнер:
FLAC (*.flac)
Количество каналов:
2.0
Разрядность/ЧД:
24/44,1
Битрейт аудио:
lossless
Время звучания:
01:00:06
Наличие сканов:
только обложка
Наличие водяных знаков:
нет
Страна-производитель диска (релиза):
Switzerland
Релизёр (источник):
M0p94ok

Треклист:

1. Last Overture 13:13
2. Hotel Grief 16:45
3. Briefly Lompoc 06:02
4. Proud Achievements in Botany 18:42
5. Mr. K.C. (for Keith Copeland) 05:24

Доп. инфо:

Записав студийную запись "Camino Ciel Echo", трио барабанщика из Нью-Йорка Тома Рейни записало "живой" альбом, в котором воплощена суть многочисленных концертов, включая несколько европейских туров.
Том Рейни, родившийся в 1957 году в Санта-Барбаре, на раннем этапе своей карьеры был известен как выдающийся барабанщик. С тех пор, как он переехал в Нью-Йорк, он играл с некоторыми из «тяжеловесов» современной джазовой сцены, включая Марка Хелиаса, Криса Дэвиса, Тима Берна и Тони Малаби. Для своего собственного трио, основанного на концепции равенства, он выбрал двух сильных музыкантов: Ингрид Лауброк - саксофонистка, которая играет с необычайной чувствительностью к структуре и форме, сочетая интеллект и поэзию в своих изысканных импровизациях. Мэри Халворсон - одна из самых востребованных джазовых гитаристов своего поколения. Она разработала очень индивидуальный стиль и звук и удивляет слушателя удивительными эффектами. Как ансамбль, они играют свежую и несентиментальную музыку: «Краткая лекция об эстетике коллективного формирования звука», как сказал один критик.

Лог проверки качества
foobar2000 1.6.2 / Dynamic Range Meter 1.1.1
log date: 2021-02-27 15:07:49

--------------------------------------------------------------------------------
Analyzed: Tom Rainey Trio / Hotel Grief
--------------------------------------------------------------------------------

DR         Peak         RMS     Duration Track
--------------------------------------------------------------------------------
DR13       0.00 dB   -16.16 dB     13:14 01-Last Overture
DR13       0.00 dB   -16.78 dB     16:46 02-Hotel Grief
DR15       0.00 dB   -19.04 dB      6:02 03-Briefly Lompoc
DR16       0.00 dB   -20.71 dB     18:43 04-Proud Achievements in Botany
DR12      -0.26 dB   -21.29 dB      5:25 05-Mr. K.C. (for Keith Copeland)
--------------------------------------------------------------------------------

Number of tracks:  5
Official DR value: DR14

Samplerate:        44100 Hz
Channels:          2
Bits per sample:   24
Bitrate:           1266 kbps
Codec:             FLAC
================================================================================
Приватный:
Нет (DHT включён)
Размер:
612.50 Мб (642,255,314 байт) » файлов: 7
Участники:
3 раздают, 4 качают (7 участников всего)
Внешние участники:
--- [ Обновить ]
Скорость:
561.89 Кб/c 0/c
No seeders - write personal message to M0p94ok. Any questions - support@pro-jazz.com.
Нет сидеров - пишите в личку M0p94ok. Есть вопросы - support@pro-jazz.com
16:18
115
16:19