Поиск

2006 Trio 3 - Time Being (feat. Oliver Lake, Reggie Workman & Andrew Cyrille) {Intakt 106} [24-88.2]

2006 Trio 3 - Time Being (feat. Oliver Lake, Reggie Workman & Andrew Cyrille) {Intakt 106} [24-88.2]
Дата записи диска:
6 марта, 7 марта и 8 марта 2005
Место записи:
Peter Karl, Brooklyn, NY, USA
Издатель (лейбл):
Номер по каталогу:
106
Носитель:
WEB
Формат:
PCM
Тип рипа:
tracks
Контейнер:
FLAC (*.flac)
Количество каналов:
2.0
Разрядность/ЧД:
24/88,2
Битрейт аудио:
lossless
Время звучания:
01:00:59
Наличие сканов:
только обложка
Страна-производитель диска (релиза):
Switzerland
Релизёр (источник):
M0p94ok
Лог проверки качества
foobar2000 1.6.2 / Dynamic Range Meter 1.1.1
log date: 2021-02-26 23:42:10

--------------------------------------------------------------------------------
Analyzed: Trio 3 / Time Being (feat. Oliver Lake, Reggie Workman & Andrew Cyrille)
--------------------------------------------------------------------------------

DR         Peak         RMS     Duration Track
--------------------------------------------------------------------------------
DR12      -0.07 dB   -15.97 dB      6:08 01-A Chase
DR12      -0.07 dB   -15.13 dB      5:24 02-Medea
DR14      -0.07 dB   -18.45 dB      6:17 03-Tight Rope
DR14      -0.15 dB   -18.59 dB      8:45 04-Equilateral
DR16      -0.51 dB   -20.39 dB      4:42 05-Lope
DR16      -0.07 dB   -19.05 dB      8:44 06-Time Was
DR14      -1.41 dB   -18.84 dB      6:38 07-Playing for Keeps
DR14      -0.07 dB   -16.10 dB      4:25 08-Given (The Whirlwind)
DR12      -0.07 dB   -16.12 dB      5:10 09-Time Being
DR12      -0.07 dB   -14.71 dB      4:54 10-Special People
--------------------------------------------------------------------------------

Number of tracks:  10
Official DR value: DR14

Samplerate:        88200 Hz
Channels:          2
Bits per sample:   24
Bitrate:           2476 kbps
Codec:             FLAC
================================================================================
No seeders - write personal message to M0p94ok. Any questions - support@pro-jazz.com.
Нет сидеров - пишите в личку M0p94ok. Есть вопросы - support@pro-jazz.com
00:53
149
Нет комментариев. Ваш будет первым!