Поиск

1999 Yuji Ohno - Lupin the Third - Jazz (2015) {Vap VPCG-84680} [24-48]

1999 Yuji Ohno - Lupin the Third - Jazz (2015) {Vap VPCG-84680} [24-48]
Место записи:
Sound Inn Studio, Tokyo, Japan
Дата издания диска:
21 октября 2019
Номер по каталогу:
Vap VPCG-84680
Битрейт аудио:
lossless
Лог проверки качества
foobar2000 1.4 / Dynamic Range Meter 1.1.1
log date: 2021-01-01 10:53:39

--------------------------------------------------------------------------------
Analyzed: 大野雄二トリオ / LUPIN THE THIRD 「JAZZ」
--------------------------------------------------------------------------------

DR         Peak         RMS     Duration Track
--------------------------------------------------------------------------------
DR9       -0.10 dB   -12.30 dB      6:20 01-Theme From Lupin III (Full Size Version)
DR10      -0.10 dB   -12.98 dB      6:38 02-O Meu A Mor
DR13      -0.10 dB   -15.81 dB      5:17 03-Love Theme
DR9       -0.10 dB   -11.49 dB      5:50 04-Members Only
DR11      -0.10 dB   -14.55 dB      4:47 05-Zenigata March
DR10      -0.10 dB   -11.95 dB      4:28 06-Funny Walk
DR10      -0.10 dB   -13.26 dB      6:20 07-Fire Treasure
DR9       -0.10 dB   -11.02 dB      3:48 08-Manhattan Joke
DR11      -0.10 dB   -13.92 dB      4:53 09-Love Squall
--------------------------------------------------------------------------------

Number of tracks:  9
Official DR value: DR10

Samplerate:        48000 Hz
Channels:          2
Bits per sample:   24
Bitrate:           1661 kbps
Codec:             FLAC
================================================================================
No seeders - write personal message to M0p94ok. Any questions - support@pro-jazz.com.
Нет сидеров - пишите в личку M0p94ok. Есть вопросы - support@pro-jazz.com
17:25
118
Нет комментариев. Ваш будет первым!