Поиск

2019 Thomas Darelid - Sunday Night Live {Nilento} [24-48]

2019 Thomas Darelid - Sunday Night Live {Nilento} [24-48]
Дата издания диска:
29 ноября 2019
Носитель:
WEB
Формат:
PCM
Тип рипа:
tracks
Контейнер:
FLAC (*.flac)
Количество каналов:
2.0
Разрядность/ЧД:
24/48
Битрейт аудио:
lossless
Время звучания:
00:26:29
Наличие сканов:
только обложка
Наличие водяных знаков:
нет
Страна-производитель диска (релиза):
USA
Релизёр (источник):
M0p94ok

Треклист:

1. Rocket Man (Live) feat. Jenny Kristoffersson, Per Lindvall  04:47
2. Dr. Winston (Live) feat. Jenny Kristoffersson, Per Lindvall  04:35
3. In Agnes Eyes (Live)  03:42
4. All You Need Is Love (Live) feat. Lina Darelid  03:33
5. Love's In Need Of Love Today (Live)  04:24
6. House of Light (Live) feat. Jenny Kristoffersson, Per Lindvall, Lina Darelid, Jakob Sollerman, Jonathan Kull, Agnes Darelid, David Fredlund, Tove Darelid  05:28

Доп. инфо:

Спонтанное взаимодействие, высокий дух и фантазия придают этому концертному альбому пианиста Томаса Дарелида, басиста Дженни Кристофферссон и Пера Линдвалла на барабанах неповторимый привкус лирической, но при этом свингующей музыкальности. Записанный солнечным весенним вечером в церкви Вифлеема в Гетеборге, с его щедрой акустикой, сет состоит из мелодических оригиналов Дарелида и пары шедевров поп-музыки или, если хотите, современных стандартов. Лина Дарелид, вокалистка, присоединяется к трио для интимной, джазовой версии абсолютного краеугольного камня, а хоровой духовой оркестр вносит свой вклад в оцененные вечера на бис. Определенно незабываемые впечатления от «Sunday Night Live», по мнению веселой публики.

Лог проверки качества
foobar2000 1.6.2 / Dynamic Range Meter 1.1.1
log date: 2021-02-27 20:44:52

--------------------------------------------------------------------------------
Analyzed: Thomas Darelid & Tove Darelid / Sunday Night Live
--------------------------------------------------------------------------------

DR         Peak         RMS     Duration Track
--------------------------------------------------------------------------------
DR13      -0.93 dB   -18.28 dB      4:47 01-Rocket Man (Live)
DR10      -1.32 dB   -14.42 dB      4:36 02-Dr. Winston (Live)
DR12      -1.88 dB   -19.48 dB      3:43 03-In Agnes Eyes (Live)
DR12      -0.90 dB   -17.53 dB      3:34 04-All You Need Is Love (Live)
DR11      -0.88 dB   -15.44 dB      4:24 05-Love ́s In Need Of Love Today (Live): Love's in Need of Love Today (Live)
DR12      -0.90 dB   -16.10 dB      5:28 06-House Of Light (Live): House of Light (Live)
--------------------------------------------------------------------------------

Number of tracks:  6
Official DR value: DR12

Samplerate:        48000 Hz
Channels:          2
Bits per sample:   24
Bitrate:           1528 kbps
Codec:             FLAC
================================================================================
Приватный:
Нет (DHT включён)
Размер:
287.17 Мб (301,124,326 байт) » файлов: 8
Участники:
2 раздают, 0 качают (2 участников всего)
Внешние участники:
--- [ Обновить ]
No seeders - write personal message to M0p94ok. Нет сидеров - пишите в личку M0p94ok.
22:03
102
Нет комментариев. Ваш будет первым!