Вы используете незарегистрированную версию компонента "Вкладки"!

Поиск

1973 Leon Spencer - Where I’m Coming From (2020) {Craft} [24-96]

1973 Leon Spencer - Where I’m Coming From (2020) {Craft} [24-96]
Битрейт аудио:
lossless
Доп. инфо:

Формат записи/Источник записи: [TR24][OF]
Издание: Remastered
Год издания/переиздания диска: 1973/2020
Издатель (лейбл): Craft Recordings
Продолжительность: 00:33:45
Наличие сканов в содержимом раздачи: Нет

Контейнер: FLAC (*.flac)
Тип рипа: tracks
Разрядность: 24/96
Количество каналов: 2.0

Источник (релизер): HIGHRESAUDIO

Лог проверки качества
foobar2000 1.6.2 / Dynamic Range Meter 1.1.1
log date: 2020-11-21 07:36:01

--------------------------------------------------------------------------------
Analyzed: Leon Spencer / Where I'm Coming From (Remastered)
--------------------------------------------------------------------------------

DR         Peak         RMS     Duration Track
--------------------------------------------------------------------------------
DR14      -0.36 dB   -17.39 dB      6:49 01-Superstition
DR14      -0.39 dB   -17.40 dB      5:16 02-Give Me Your Love
DR14      -0.04 dB   -17.53 dB      5:23 03-Keeper Of the Castle
DR14      -2.70 dB   -19.85 dB      6:23 04-Trouble Man
DR15      -0.03 dB   -19.51 dB      4:19 05-The Price A Po’ Man’s Got to Pay
DR15      -0.09 dB   -20.09 dB      5:37 06-Where I’m Coming From
--------------------------------------------------------------------------------

Number of tracks:  6
Official DR value: DR14

Samplerate:        96000 Hz
Channels:          2
Bits per sample:   24
Bitrate:           2728 kbps
Codec:             FLAC
================================================================================
Any questions - support@pro-jazz.com. Есть вопросы - support@pro-jazz.com
23:46
155
Нет комментариев. Ваш будет первым!