Поиск

2019 Surnatural Orchestra - Esquif {Collectif Surnatural} [24-48]

2019 Surnatural Orchestra - Esquif {Collectif Surnatural} [24-48]
Дата издания диска:
19 апреля 2019
Носитель:
WEB
Формат:
PCM
Тип рипа:
tracks
Контейнер:
FLAC (*.flac)
Количество каналов:
2.0
Разрядность/ЧД:
24/48
Битрейт аудио:
lossless
Время звучания:
00:44:34
Наличие сканов:
только обложка
Наличие водяных знаков:
нет
Страна-производитель диска (релиза):
France
Релизёр (источник):
M0p94ok

Треклист:

01. One / L'homme qui perdit son ombre  05:20
02. Trashimbrod  07:19
03. Kappa  01:22
04. Le truc d'hier  02:39
05. Presque  05:33
06. Musette  03:16
07. Le magicien  05:44
08. Zombie garden  06:47
09. Pauvre flûte  00:40
10. Pauvre Paris  05:54

Лог проверки качества
foobar2000 1.3.16 / Dynamic Range Meter 1.1.1
log date: 2019-04-22 23:50:46

--------------------------------------------------------------------------------
Analyzed: Surnatural Orchestra / Esquif
--------------------------------------------------------------------------------

DR         Peak         RMS     Duration Track
--------------------------------------------------------------------------------
DR8        0.00 dB   -11.38 dB      5:21 01-One / L'homme qui perdit son ombre
DR7        0.00 dB   -10.07 dB      7:19 02-Trashimbrod
DR15      -0.06 dB   -17.93 dB      1:23 03-Kappa
DR9        0.00 dB   -11.37 dB      2:39 04-Le truc d'hier
DR10       0.00 dB   -12.07 dB      5:33 05-Presque
DR10       0.00 dB   -13.15 dB      3:17 06-Musette
DR14       0.00 dB   -17.50 dB      5:45 07-Le magicien
DR10       0.00 dB   -13.16 dB      6:47 08-Zombie garden
DR3      -14.40 dB   -24.95 dB      0:40 09-Pauvre flûte
DR8        0.00 dB   -10.42 dB      5:54 10-Pauvre Paris
--------------------------------------------------------------------------------

Number of tracks:  10
Official DR value: DR9

Samplerate:        48000 Hz
Channels:          2
Bits per sample:   24
Bitrate:           1623 kbps
Codec:             FLAC
================================================================================
Приватный:
Нет (DHT включён)
Размер:
521.20 Мб (546,515,090 байт) » файлов: 12
Участники:
2 раздают, 0 качают (2 участников всего)
Внешние участники:
--- [ Обновить ]
No seeders - write personal message to M0p94ok. Нет сидеров - пишите в личку M0p94ok.
00:33
97
Нет комментариев. Ваш будет первым!