Поиск

2016 Aki Rissanen - Amorandom {Edition} [24-44.1]

2016 Aki Rissanen - Amorandom {Edition} [24-44.1]
Дата записи диска:
29 июня - 30 июня 2015
Место записи:
Kallio-Kuninkala Studios, Järvenpää, Finland
Дата издания диска:
4 марта 2016
Издатель (лейбл):
Номер по каталогу:
EDN1067
Носитель:
WEB
Формат:
PCM
Тип рипа:
tracks
Контейнер:
FLAC (*.flac)
Количество каналов:
2.0
Разрядность/ЧД:
24/44,1
Битрейт аудио:
lossless
Время звучания:
00:50:05
Наличие сканов:
только обложка
Наличие водяных знаков:
нет
Страна-производитель диска (релиза):
UK
Релизёр (источник):
M0p94ok

Треклист:

1. Pulsar  08:43
2. For Rainbows  04:41
3. Paysages Pas Sages  06:17
4. Aleatoric  06:04
5. Signettes  04:48
6. For Jimmy Giuffre  05:02
7. Eye-Opener  01:36
8. Bird Vision  05:05
9. Amorandom  07:49

Доп. инфо:

Этот альбом получил премию Emma как "Лучший джазовый альбом".

Amorandom - это новый международный релиз финского пианиста и композитора Аки Риссанена, которого журнал Downbeat Magazine в 2015 году назвал «восходящей звездой Европы».

За последние несколько лет Aki незаметно завоевал себе репутацию в международном джазовом мире как лидер и как сторонник. С Amorandom он представляет свою самую авторитетную работу на сегодняшний день. В его игре есть плавность и смелость в сочинении, что заслуживает широкой похвалы и настоящего признания одного из лучших молодых европейских пианистов. Описанный Downbeat как «восходящая звезда Европы», Amorandom - это работа, которая представит потрясающий новый талант Аки Риссанена мировой аудитории.

«Аки - чрезвычайно музыкальный, страстный и задушевный человек, обладающий высоким уровнем энергии. Он один из лучших молодых пианистов, которых я слышал за последние годы ». ДЕЙВ ЛИБМАН

«Мелодичное воображение и инстинкт превращать знакомое в незнакомые формы». GUARDIAN

Лог проверки качества
foobar2000 1.3.16 / Dynamic Range Meter 1.1.1
log date: 2019-04-24 20:18:30

--------------------------------------------------------------------------------
Analyzed: Aki Rissanen / Amorandom
--------------------------------------------------------------------------------

DR         Peak         RMS     Duration Track
--------------------------------------------------------------------------------
DR10       0.00 dB   -13.52 dB      8:43 01-Pulsar
DR10      -0.23 dB   -13.20 dB      4:41 02-For Rainbows
DR8       -0.23 dB   -11.39 dB      6:18 03-Paysages Pas Sages
DR9       -0.23 dB   -11.88 dB      6:05 04-Aleatoric
DR11      -0.23 dB   -14.09 dB      4:49 05-Signettes
DR11      -0.23 dB   -14.52 dB      5:03 06-For Jimmy Giuffre
DR11      -1.40 dB   -16.32 dB      1:37 07-Eye-Opener
DR10       0.00 dB   -12.17 dB      5:05 08-Bird Vision
DR10      -0.23 dB   -14.52 dB      7:50 09-Amorandom
--------------------------------------------------------------------------------

Number of tracks:  9
Official DR value: DR10

Samplerate:        44100 Hz
Channels:          2
Bits per sample:   24
Bitrate:           706 kbps
Codec:             FLAC
================================================================================
Приватный:
Нет (DHT включён)
Размер:
272.27 Мб (285,492,243 байт) » файлов: 11
Участники:
4 раздают, 0 качают (4 участников всего)
Внешние участники:
--- [ Обновить ]
No seeders - write personal message to M0p94ok. Нет сидеров - пишите в личку M0p94ok.
15:27
103
Нет комментариев. Ваш будет первым!