Вы используете незарегистрированную версию компонента "Вкладки"!

Поиск

2019 Tine Skolmen - Here's to Life {Ponca Jazz} [24-96]

2019 Tine Skolmen - Here's to Life {Ponca Jazz} [24-96]
Стили:
Доп. инфо:

Формат записи/Источник записи: [TR24][OF]
Наличие водяных знаков: Нет
Год издания: 2019
Издатель (лейбл): Ponca Jazz Records
Продолжительность: 00:40:28
Наличие сканов в содержимом раздачи: Только обложка альбома
Контейнер: FLAC (*.flac)
Тип рипа: tracks
Разрядность: 24/96
Формат: PCM
Количество каналов: 2.0
Источник (релизер): qobuz.com

Лог проверки качества
foobar2000 1.4.8 / Dynamic Range Meter 1.1.1
log date: 2019-12-01 12:45:56

--------------------------------------------------------------------------------
Analyzed: Tine Skolmen / Here's to Life
--------------------------------------------------------------------------------

DR         Peak         RMS     Duration Track
--------------------------------------------------------------------------------
DR11      -4.58 dB   -19.85 dB      5:38 01-Heres to Life
DR10      -6.97 dB   -20.71 dB      2:59 02-Once Upon a Summertime
DR11      -4.72 dB   -20.04 dB      3:37 03-Sorry Seems to Be the Hardest Word
DR10      -2.54 dB   -14.88 dB      2:58 04-I Will Wait for You
DR9       -5.71 dB   -19.34 dB      2:32 05-You Must Believe in Spring
DR10      -5.25 dB   -18.35 dB      3:39 06-If You Love Me (Hymn Á 'Lamour)
DR11      -4.38 dB   -18.99 dB      3:29 07-But Beautiful
DR11      -4.47 dB   -18.84 dB      4:06 08-Heres That Rainy Day
DR11      -5.29 dB   -21.01 dB      5:03 09-If You Go Away
DR10      -4.46 dB   -19.73 dB      3:22 10-All in Love is Fair
DR11      -6.47 dB   -23.01 dB      3:11 11-What Are You Doing the Rest of Your Life
--------------------------------------------------------------------------------

Number of tracks:  11
Official DR value: DR11
Samplerate:        96000 Hz
Channels:          2
Bits per sample:   24
Bitrate:           2510 kbps
Codec:             FLAC
================================================================================
Any questions - support@pro-jazz.com. Есть вопросы - support@pro-jazz.com
10:02
262
Нет комментариев. Ваш будет первым!