Вы используете незарегистрированную версию компонента "Вкладки"!

Поиск

1963 Cal Tjader Quintet - Sona Libre (2016) {HDTT} [DXD 24-352,8]

1963 Cal Tjader Quintet - Sona Libre (2016) {HDTT} [DXD 24-352,8]
Стили:
Доп. инфо:

Формат записи/Источник записи: [DXD][OF]
Наличие водяных знаков: Нет
Год издания/переиздания диска: 1963/2016
Издатель (лейбл): High Definition Tape Transfers
Продолжительность: 00:39:16
Наличие сканов в содержимом раздачи: Буклет PDF

Контейнер: FLAC (*.flac)
Тип рипа: tracks
Разрядность: 24/352,8
Формат: DXD
Количество каналов: 2.0

Источник (релизер): https://www.highdeftapetransfers.com/products/cal-tjader-sona-libre-cal-tjader-quintet

Лог проверки качества
foobar2000 1.4.8 / Замер динамического диапазона (DR) 1.1.1
Дата отчёта:  2019-11-30 20:19:00

--------------------------------------------------------------------------------
Анализ:   Cal Tjader Quintet / Sona Libre
--------------------------------------------------------------------------------

DR         Пики         RMS           Продолжительность трека
--------------------------------------------------------------------------------
DR11      -1.68 дБ   -16.42 дБ      2:38 01-Hip Walk
DR12      -2.19 дБ   -17.35 дБ      3:15 02-Sally's Tomato
DR11      -2.66 дБ   -16.77 дБ      4:25 03-O Barquinho
DR11      -1.30 дБ   -14.73 дБ      3:02 04-El Muchacho
DR11      -1.19 дБ   -14.93 дБ      5:34 05-Insight
DR12      -1.97 дБ   -16.86 дБ      2:45 06-My Reverie
DR13      -0.39 дБ   -17.90 дБ      6:16 07-Manha De Carnival
DR12      -2.01 дБ   -16.57 дБ      2:48 08-Azul
DR10      -2.07 дБ   -16.73 дБ      4:07 09-Invitation
DR11      -2.69 дБ   -17.52 дБ      4:26 10-Alonzo
--------------------------------------------------------------------------------

Количество треков: 10
Реальные значения DR: DR11

Частота:   352800 Гц
Каналов:   2
Разрядность:   24
Битрейт:   7636 кбит/с
Кодек:   FLAC
================================================================================
Any questions - support@pro-jazz.com. Есть вопросы - support@pro-jazz.com
23:35
304
Нет комментариев. Ваш будет первым!