Вы используете незарегистрированную версию компонента "Вкладки"!

Поиск

2019 Ken Peplowski Quartet - Petite Fleur {Venus} [DSD64 ISO]

2019 Ken Peplowski Quartet - Petite Fleur {Venus} [DSD64 ISO]
Стили:
Издатель (лейбл):
Доп. инфо:

Формат записи/Источник записи: [SACD-R][OF]
Наличие водяных знаков: Нет
Год издания/переиздания диска: 2019
Продолжительность: 01:05:04
Наличие сканов в содержимом раздачи: Да (сканы)

Контейнер: ISO (*.iso)
Тип рипа: image
Разрядность: 64(2,8 MHz/1 Bit)
Формат: DSD
Количество каналов: 2.0

Источник (релизер): jazzyman (PS³SACD)
http://www.cdjapan.co.jp/product/VHGD-338

Лог проверки качества
foobar2000 1.4.8 / Замер динамического диапазона (DR) 1.1.1
Дата отчёта:  2019-11-29 21:12:13

--------------------------------------------------------------------------------
Анализ:   Ken Peplowski Quartet / PETITE FLEUR
--------------------------------------------------------------------------------

DR         Пики         RMS           Продолжительность трека
--------------------------------------------------------------------------------
DR6       -5.23 дБ   -14.34 дБ      3:04 01-Petite Fleur
DR7       -4.94 дБ   -14.10 дБ      6:33 02-Blue Bossa
DR8       -5.23 дБ   -15.10 дБ      3:31 03-Dream
DR6       -5.10 дБ   -13.67 дБ      6:11 04-My Man
DR8       -5.30 дБ   -15.68 дБ      6:04 05-Hush-A-Bye
DR9       -5.39 дБ   -18.27 дБ      5:22 06-Here's To Life
DR6       -5.09 дБ   -12.98 дБ      7:01 07-Love Is A Many-Splendored Thing
DR6       -5.17 дБ   -14.43 дБ      3:26 08-If You Are But A Dream
DR6       -5.19 дБ   -13.57 дБ      6:29 09-So In Love
DR7       -5.21 дБ   -15.26 дБ      5:17 10-I'm A Fool To Want You
DR6       -5.00 дБ   -13.21 дБ      7:05 11-Tangerine
DR7       -5.27 дБ   -15.91 дБ      5:02 12-What Are You Doing The Rest Of Your Life
--------------------------------------------------------------------------------

Количество треков: 12
Реальные значения DR: DR7

Частота:   2822400 Гц / Частота PCM: 88200 Гц
Каналов:   2
Разрядность:   1
Битрейт:   5645 кбит/с
Кодек:   DSD64
================================================================================
Any questions - support@pro-jazz.com. Есть вопросы - support@pro-jazz.com
14:26
344
Нет комментариев. Ваш будет первым!