Вы используете незарегистрированную версию компонента "Вкладки"!

Поиск

2019 Laurence Juber - Downtown {Hologram} [24-44,1]

2019 Laurence Juber - Downtown {Hologram} [24-44,1]
Стили:
Доп. инфо:

Формат записи/Источник записи: [TR24][OF]
Наличие водяных знаков: Нет
Год издания/переиздания диска: 2019
Издатель (лейбл): Hologram Recordings
Продолжительность: 47:53
Наличие сканов в содержимом раздачи: Буклет PDF

Контейнер: FLAC (*.flac)
Тип рипа: tracks
Разрядность: 24/44,1
Формат: PCM
Количество каналов: 2.0

Источник: qobuz.com

Лог проверки качества
foobar2000 1.3.9 / Dynamic Range Meter 1.1.1
log date: 2019-11-29 11:54:28

--------------------------------------------------------------------------------
Analyzed: Laurence Juber / Downtown
--------------------------------------------------------------------------------

DR         Peak         RMS     Duration Track
--------------------------------------------------------------------------------
DR11      -0.02 dB   -13.35 dB      3:38 01-Caravan
DR10      -0.02 dB   -13.20 dB      3:08 02-Limehouse Blues
DR14      -0.01 dB   -16.84 dB      4:37 03-Willow Weep For Me
DR12      -0.02 dB   -15.44 dB      2:54 04-Lullaby Of Birdland
DR11      -0.02 dB   -12.92 dB      3:00 05-I Can't Give You Anything But Love, Baby
DR14      -0.02 dB   -16.58 dB      4:40 06-Misty
DR13      -0.02 dB   -14.69 dB      2:42 07-On The Sunny Side Of The Street
DR9       -0.02 dB   -12.22 dB      5:17 08-A Foggy Day
DR13      -0.68 dB   -17.25 dB      3:51 09-September Song
DR14      -0.02 dB   -16.94 dB      3:17 10-Zing Went The Strings Of My Heart
DR14      -0.02 dB   -16.65 dB      4:09 11-Goodbye Pork Pie Hat
DR13      -0.02 dB   -15.18 dB      2:59 12-Downtown
DR10      -0.02 dB   -12.89 dB      3:42 13-Airfoil
--------------------------------------------------------------------------------

Number of tracks:  13
Official DR value: DR12

Samplerate:        44100 Hz
Channels:          2
Bits per sample:   24
Bitrate:           1313 kbps
Codec:             FLAC
================================================================================
Any questions - support@pro-jazz.com. Есть вопросы - support@pro-jazz.com
22:32
229
Нет комментариев. Ваш будет первым!