Вы используете незарегистрированную версию компонента "Вкладки"!

Поиск

2019 Mat Maneri Quartet - Dust {Sunnyside} [24-88,2]

2019 Mat Maneri Quartet - Dust {Sunnyside} [24-88,2]
Дата издания диска:
15 ноября 2019
Издатель (лейбл):
Доп. инфо:

https://sunnysidezone.com/album/dust-3

Формат записи/Источник записи: [TR24][OF]
Год издания/переиздания диска: 2019
Продолжительность: 00:56:43
Наличие сканов в содержимом раздачи: Только обложка альбома
Источник (релизер): Интернеты/Благодарим kramskoi

Контейнер: FLAC (*.flac)
Тип рипа: tracks
Разрядность: 24/88,2
Формат: PCM
Количество каналов: 2.0

Лог проверки качества
foobar2000 1.4 / Dynamic Range Meter 1.1.1
log date: 2019-11-29 13:27:17

--------------------------------------------------------------------------------
Analyzed: Mat Maneri / Dust
--------------------------------------------------------------------------------

DR         Peak         RMS     Duration Track
--------------------------------------------------------------------------------
DR13      -1.01 dB   -18.60 dB      6:52 01-Mojave
DR13      -1.01 dB   -19.03 dB      7:10 02-51 Sorrows
DR14      -1.01 dB   -20.20 dB      8:07 03-Red Seven
DR13      -1.01 dB   -19.36 dB      3:35 04-Motian
DR12      -1.66 dB   -19.19 dB      6:26 05-Two Hymns
DR13      -1.01 dB   -19.02 dB      7:42 06-Losed
DR10      -1.01 dB   -16.79 dB      6:33 07-Last Steps
DR14      -1.38 dB   -20.83 dB      5:01 08-Retina
DR13      -1.01 dB   -20.56 dB      5:17 09-Dust
--------------------------------------------------------------------------------

Number of tracks:  9
Official DR value: DR13

Samplerate:        88200 Hz
Channels:          2
Bits per sample:   24
Bitrate:           2483 kbps
Codec:             FLAC
================================================================================
Any questions - support@pro-jazz.com. Есть вопросы - support@pro-jazz.com
20:17
253
Нет комментариев. Ваш будет первым!