Вы используете незарегистрированную версию компонента "Вкладки"!

Поиск

2019 Marie Mørck Quartet - Fooling Around {AMP Music} [24-48]

2019 Marie Mørck Quartet - Fooling Around {AMP Music} [24-48]
Стили:
Доп. инфо:

Формат записи/Источник записи: [TR24][OF]
Наличие водяных знаков: Нет
Год издания: 2019
Издатель (лейбл): AMP Music & Records
Продолжительность: 00:47:47
Наличие сканов в содержимом раздачи: Только обложка альбома
Контейнер: FLAC (*.flac)
Тип рипа: tracks
Разрядность: 24/48
Формат: PCM
Количество каналов: 2.0
Источник (релизер): prestomusic.com

Лог проверки качества
foobar2000 1.4.8 / Dynamic Range Meter 1.1.1
log date: 2019-12-01 13:14:49

--------------------------------------------------------------------------------
Analyzed: Marie Mørck Quartet / Fooling Around
--------------------------------------------------------------------------------

DR         Peak         RMS     Duration Track
--------------------------------------------------------------------------------
DR9        0.00 dB   -11.38 dB      5:01 01-But Not for Me
DR9        0.00 dB   -13.11 dB      5:09 02-Exclusively Yours
DR8        0.00 dB   -10.37 dB      5:28 03-The Color Blue
DR11       0.00 dB   -13.89 dB      5:13 04-Bornholm
DR9        0.00 dB   -11.39 dB      8:15 05-Fooling Around
DR9        0.00 dB   -11.38 dB      2:42 06-We Have All Day
DR10       0.00 dB   -12.35 dB      4:39 07-I Still Pray for the Fun to Start
DR9        0.00 dB   -11.82 dB      4:42 08-Alice in Wonderland
DR10       0.00 dB   -13.19 dB      6:43 09-Under the Grass
--------------------------------------------------------------------------------

Number of tracks:  9
Official DR value: DR9
Samplerate:        48000 Hz
Channels:          2
Bits per sample:   24
Bitrate:           1565 kbps
Codec:             FLAC
================================================================================
Any questions - support@pro-jazz.com. Есть вопросы - support@pro-jazz.com
11:03
236
Нет комментариев. Ваш будет первым!