Поиск

2019 Three Tenors - Like The Brightest Star {Venus} [DSD64 ISO]

2019 Three Tenors - Like The Brightest Star {Venus} [DSD64 ISO]
Стили:
Дата записи диска:
19 февраля - 20 февраля 2019
Место записи:
The Hideaway Studio, California
Издатель (лейбл):
Номер по каталогу:
VHGD-351
Носитель:
SACD
Формат:
DSD
Тип рипа:
image
Контейнер:
ISO (*.iso)
Количество каналов:
2.0
Разрядность/ЧД:
64 (2,8 MHz/1 Bit)
Битрейт аудио:
lossless
Время звучания:
01:09:46
Наличие сканов:
только обложка

01        You And The Night And The Music    10:00
02        Like The Brightest Star    7:23
03        Somebody I Just Met    7:41
04        Topsy    8:49
05        It Was So Beautiful    3:43
06        Das Blues    5:33
07        The Shadow Of Your Smile    6:58
08        That Old Black Magic    4:59
09        Old Folks    5:32
10        Sleep    9:04

Состав:
  • Harry Allen — tenor sax
  • Ken Peplowski — tenor sax
  • Scott Hamilton — tenor sax
  • Tom Ranier — piano
  • David Stone — bass Kevin Kanner — drums
Лог проверки качества
foobar2000 1.6.7 / Dynamic Range Meter 1.1.1
log date: 2021-11-24 12:02:28
--------------------------------------------------------------------------------
Analyzed: Three Tenors, Harry Allen & Ken Peplowski & Scott Hamilton / LIKE THE BRIGHTEST STAR
--------------------------------------------------------------------------------
DR         Peak         RMS     Duration Track
--------------------------------------------------------------------------------
DR7       -4.40 dB   -13.98 dB      9:59 01-YOU AND THE NIGHT AND THE MUSIC
DR8       -4.02 dB   -14.78 dB      7:24 02-LIKE THE BRIGHTEST STAR
DR11      -5.30 dB   -20.35 dB      7:42 03-SOMEBODY I JUST MET
DR8       -4.63 dB   -14.48 dB      8:50 04-TOPSY
DR8       -4.81 dB   -15.84 dB      3:44 05-IT WAS SO BEAUTIFUL
DR9       -5.24 dB   -16.60 dB      5:34 06-DAS BLUES
DR9       -6.06 dB   -18.74 dB      6:59 07-THE SHADOW OF YOUR SMILE
DR8       -4.35 dB   -13.91 dB      4:59 08-THAT OLD BLACK MAGIC
DR11      -4.80 dB   -19.59 dB      5:32 09-OLD FOLKS
DR8       -4.57 dB   -14.11 dB      9:04 10-SLEEP
--------------------------------------------------------------------------------
Number of tracks:  10
Official DR value: DR9
Samplerate:        2822400 Hz / PCM Samplerate: 88200 Hz
Channels:          2
Bits per sample:   1
Bitrate:           5645 kbps
Codec:             DSD64
================================================================================
Приватный:
Нет (DHT включён)
Размер:
2.81 Гб (3,013,969,396 байт) » файлов: 5
Участники:
0 раздают, 0 качают (0 участников всего)
Внешние участники:
--- [ Обновить ]
14:19
430
Нет комментариев. Ваш будет первым!