Поиск

2019 Ruby Rushton - Ironside {22a Music} [24-44.1]

2019 Ruby Rushton - Ironside {22a Music} [24-44.1]
Стили:
Издатель (лейбл):
Номер по каталогу:
22a 027
Носитель:
WEB
Формат:
PCM
Тип рипа:
tracks
Контейнер:
FLAC (*.flac)
Количество каналов:
2.0
Разрядность/ЧД:
24/44,1
Битрейт аудио:
lossless
Время звучания:
01:15:34
Наличие сканов:
только обложка
Страна-производитель диска (релиза):
UK
Релизёр (источник):
M0p94ok
Лог проверки качества
foobar2000 1.6.2 / Dynamic Range Meter 1.1.1
log date: 2021-04-13 16:23:42

--------------------------------------------------------------------------------
Analyzed: Ruby Rushton / Ironside
--------------------------------------------------------------------------------

DR         Peak         RMS     Duration Track
--------------------------------------------------------------------------------
DR9       -0.50 dB   -11.40 dB      5:00 01-One Mo' Dram
DR10      -0.50 dB   -12.81 dB      4:23 02-Where Are You Now?
DR9       -0.50 dB   -11.16 dB      2:37 03-The Target
DR9       -0.50 dB   -11.93 dB      8:13 04-Return of the Hero
DR9       -0.80 dB   -11.12 dB      4:40 05-Eleven Grapes
DR8       -0.50 dB   -11.00 dB      5:24 06-Lara's Theme
DR9       -0.50 dB   -14.90 dB      4:25 07-Prayer for Grenfell
DR9       -0.50 dB   -11.11 dB      3:49 08-Ironside
DR8       -0.50 dB   -10.53 dB      5:15 09-Triceratops / The Caller
DR10      -0.50 dB   -14.79 dB      9:59 10-Pingwin (Requiem for Komeda)
--------------------------------------------------------------------------------

Number of tracks:  10
Official DR value: DR9

Samplerate:        44100 Hz
Channels:          2
Bits per sample:   24
Bitrate:           1522 kbps
Codec:             FLAC
================================================================================
No seeders - write personal message to M0p94ok. Any questions - support@pro-jazz.com.
Нет сидеров - пишите в личку M0p94ok. Есть вопросы - support@pro-jazz.com
16:36
160
Нет комментариев. Ваш будет первым!