Поиск

2015 VA - Venus The Amazing Super Audio CD Sampler Vol.9 {Venus} [DSD64]

2015 VA - Venus The Amazing Super Audio CD Sampler Vol.9 {Venus} [DSD64]
Издатель (лейбл):
Номер по каталогу:
VHGD-109
Битрейт аудио:
lossless
Доп. инфо:

Формат записи/Источник записи: [SACD-R][OF]
Наличие водяных знаков: Нет
Издание: Sampler
Год издания диска: 2015
Продолжительность: 01:29:15
Наличие сканов в содержимом раздачи: Только обложка альбома

Контейнер: ISO (*.iso)
Тип рипа: image
Разрядность: 64(2,8 MHz/1 Bit)
Формат: DSD
Количество каналов: 2.0

Источник: venusrecords

Лог проверки качества
foobar2000 1.6.4 / Замер динамического диапазона (DR) 1.1.1
Дата отчёта:  2021-02-07 22:53:40

--------------------------------------------------------------------------------
Анализ:   Various Artists / VENUS THE AMAZING SUPER AUDIO CD SAMPLER VOL.9
--------------------------------------------------------------------------------

DR         Пики         RMS           Продолжительность трека
--------------------------------------------------------------------------------
DR8       -4.76 дБ   -15.34 дБ      5:19 01-Cleopatra's Dream
DR8       -4.47 дБ   -14.10 дБ      6:51 02-I've Never Been In Love Before
DR10      -3.97 дБ   -16.10 дБ      4:42 03-Bag's Groove
DR8       -4.26 дБ   -13.78 дБ      6:16 04-Fragile
DR8       -3.99 дБ   -14.40 дБ      5:58 05-Just One Of Those Things
DR8       -3.73 дБ   -12.77 дБ      5:30 06-Double Moon
DR9       -5.34 дБ   -16.77 дБ      6:49 07-Flamenco Sketches
DR8       -4.48 дБ   -14.14 дБ      5:09 08-As Long As There's Music
DR7       -4.37 дБ   -13.46 дБ      6:27 09-But Not For Me
DR8       -5.14 дБ   -14.99 дБ      4:36 10-Nardis
DR9       -4.55 дБ   -15.24 дБ      7:29 11-I Didn't Know What Time It Was
DR8       -5.10 дБ   -14.98 дБ      6:27 12-Two For The Road
DR9       -5.28 дБ   -17.02 дБ      5:07 13-Blame It On My Youth
DR9       -3.85 дБ   -14.12 дБ      5:34 14-Cheek To Cheek
DR9       -4.95 дБ   -17.10 дБ      7:02 15-Moment To Moment
--------------------------------------------------------------------------------

Количество треков: 15
Реальные значения DR: DR9

Частота:  2822400 Гц / Частота PCM: 352800 Гц
Каналов:  2
Разрядность:   1
Битрейт:  5645 кбит/с
Кодек:   DSD64
================================================================================
No seeders - write personal message to M0p94ok. Any questions - support@pro-jazz.com.
Нет сидеров - пишите в личку M0p94ok. Есть вопросы - support@pro-jazz.com
14:01
140
Нет комментариев. Ваш будет первым!