Вы используете незарегистрированную версию компонента "Вкладки"!

Поиск

1976 Louis Hayes, Junior Cook Quintet - At Onkel Pö's Carnegie Hall, Hamburg (2019) {JSM} [24-48]

1976 Louis Hayes, Junior Cook Quintet - At Onkel Pö's Carnegie Hall, Hamburg (2019) {JSM} [24-48]
Битрейт аудио:
lossless
Доп. инфо:

Формат записи/Источник записи: [TR24][OF]
Издание: Remastered
Год издания/переиздания диска: 1976/2019
Издатель (лейбл): Jazzline Studio Masters
Продолжительность: 01:55:00
Наличие сканов в содержимом раздачи: Нет

Контейнер: FLAC (*.flac)
Тип рипа: tracks
Разрядность: 24/48
Количество каналов: 2.0

Источник (релизер): PROSTUDIOMASTERS

Лог проверки качества
foobar2000 1.4.3 / Dynamic Range Meter 1.1.1
log date: 2021-02-06 14:55:09

--------------------------------------------------------------------------------
Analyzed: Louis Hayes / At Onkel Pö's Carnegie Hall, Hamburg 1976 (Live)
--------------------------------------------------------------------------------

DR         Peak         RMS     Duration Track
--------------------------------------------------------------------------------
DR10      -1.10 dB   -12.93 dB     22:47 01-All the Things You Are (Live)
DR11      -1.10 dB   -14.80 dB     12:34 02-When Sunny Get's Blue (Live)
DR10      -1.10 dB   -13.41 dB     19:10 03-Moontrane (Live)
DR12      -1.10 dB   -15.19 dB     11:29 04-Pannonica (Live)
DR9       -1.09 dB   -12.47 dB     18:21 05-Ichi-Ban (Live)
DR10      -1.10 dB   -13.58 dB     17:36 06-Moment to Moment (Live)
DR8       -1.09 dB   -12.37 dB     13:06 07-Four for Nothing (Live)
--------------------------------------------------------------------------------

Number of tracks:  7
Official DR value: DR10

Samplerate:        48000 Hz
Channels:          2
Bits per sample:   24
Bitrate:           1749 kbps
Codec:             FLAC
================================================================================
Any questions - support@pro-jazz.com. Есть вопросы - support@pro-jazz.com
18:10
160
Нет комментариев. Ваш будет первым!