Поиск

2020 Chicago Underground Quartet - Good Days {Astral Spirits} [24-44.1]

2020 Chicago Underground Quartet - Good Days {Astral Spirits} [24-44.1]
Стили:
Битрейт аудио:
lossless

Треклист:

1. Orgasm 05:35
2. Strange Wing 08:05
3. Good Days (For Lee Anne) 02:54
4. Batida 02:41
5. All The Bells 04:00
6. Unique Spiral 05:34
7. Lomé 05:11
8. Westview 03:59

Доп. инфо:

Формат записи/Источник записи: [TR24][OF]
Наличие водяных знаков: Нет
Год издания/переиздания диска: 2020
Издатель (лейбл): Astral Spirits
Продолжительность: 00:38:03
Наличие сканов в содержимом раздачи: Только обложка альбома

Контейнер: FLAC (*.flac)
Тип рипа: tracks
Разрядность: 24/44,1
Формат: PCM
Количество каналов: 2.0

Источник (релизер): bandcamp

Лог проверки качества
foobar2000 1.6.2 / Dynamic Range Meter 1.1.1
log date: 2021-02-09 19:47:20

--------------------------------------------------------------------------------
Analyzed: Chicago Underground Quartet / Good Days
--------------------------------------------------------------------------------

DR         Peak         RMS     Duration Track
--------------------------------------------------------------------------------
DR9       -0.50 dB   -11.93 dB      5:35 01-Orgasm
DR10      -0.61 dB   -12.37 dB      8:06 02-Strange Wing
DR8       -2.34 dB   -13.29 dB      2:54 03-Good Days (For Lee Anne)
DR10      -0.29 dB   -11.72 dB      2:42 04-Batida
DR16      -1.01 dB   -20.44 dB      4:01 05-All The Bells
DR9       -0.75 dB   -12.76 dB      5:35 06-Unique Spiral
DR14      -1.66 dB   -22.00 dB      5:11 07-Lomé
DR10      -0.23 dB   -10.89 dB      3:59 08-Westview
--------------------------------------------------------------------------------

Number of tracks:  8
Official DR value: DR11

Samplerate:        44100 Hz
Channels:          2
Bits per sample:   24
Bitrate:           1613 kbps
Codec:             FLAC
================================================================================
Приватный:
Нет (DHT включён)
Размер:
400.15 Мб (419,592,590 байт) » файлов: 10
Участники:
0 раздают, 0 качают (0 участников всего)
Внешние участники:
8 раздают, 2 качают (10 участников всего) [ Обновить ]
No seeders - write personal message to M0p94ok. Нет сидеров - пишите в личку M0p94ok.
20:44
89
Нет комментариев. Ваш будет первым!