Поиск

2019 Rossella Cappadone - Dualidad - The Many Faces of Tango {Galileo Music} [24-48]

2019 Rossella Cappadone - Dualidad - The Many Faces of Tango {Galileo Music} [24-48]
Дата издания диска:
13 июня 2019
Носитель:
WEB
Формат:
PCM
Тип рипа:
tracks
Контейнер:
FLAC (*.flac)
Количество каналов:
2.0
Разрядность/ЧД:
24/48
Битрейт аудио:
lossless
Время звучания:
00:42:43
Наличие сканов:
только обложка
Релизёр (источник):
M0p94ok
Доп. инфо:

Любовь к джазу и его южноамериканским влияниям, выраженная в использовании классических инструментов в джазовом контексте, в исполнении импровизированной музыки.

Смычковые инструменты всегда обладали завораживающим очарованием, которое побудило меня провести период своей жизни сначала с альтом, а затем со скрипкой. Но пока я изучал классическую музыку в консерватории, я почувствовал, что любовь к джазу и его южноамериканские влияния растут во мне все больше и больше.

Опыт тех лет не привел меня к тому, что я стал скрипачом или альтистом, вместо этого он дал мне возможность войти в измерение, которое я все еще хочу исследовать: я решил объединить эти два мира, используя классические инструменты в джазе. контекст, который охватывает роль, которая является гармоничной и ритмичной, что приводит к неформальной манере письма.

Все это было бы невозможно без помощи Стефано Бедетти, который сначала приветствовал и поддержал идею, а затем создал аранжировки песен, которые превзошли все мои ожидания.

Жобим и Пьяццолла сопровождали меня на протяжении большей части моей жизни, мне всегда нравился их естественный подход к музыке, и в некотором смысле реализация этого альбома следует той же линии, где каждая нота продиктована инстинктом и не учитывает любые надстройки ».

https://www.highresaudio.com/de/album/view/3joi5c/rossella-cappadone-stefano-bedetti-dualidad-the-many-faces-of-tango

Лог проверки качества
foobar2000 1.6.2 / Dynamic Range Meter 1.1.1
log date: 2021-05-22 17:27:09

--------------------------------------------------------------------------------
Analyzed: Cappadone Rossella / Dualidad: The Many Faces of Tango
--------------------------------------------------------------------------------

DR         Peak         RMS     Duration Track
--------------------------------------------------------------------------------
DR11      -1.09 dB   -13.55 dB      5:42 01-Vuelvo al Sur
DR10      -1.09 dB   -12.77 dB      4:44 02-Libertango
DR11      -1.09 dB   -14.22 dB      5:14 03-Passarim
DR11      -1.09 dB   -14.99 dB      4:07 04-Modinha
DR11      -1.09 dB   -13.91 dB      4:41 05-Maria de Buenos Aires
DR10      -1.08 dB   -13.23 dB      4:25 06-Luiza
DR11      -1.08 dB   -14.98 dB      4:55 07-Summit
DR10      -1.10 dB   -13.60 dB      5:19 08-Someone to Light Up My Life
DR10      -1.10 dB   -13.38 dB      3:38 09-O Morro Nao Tem Vez
--------------------------------------------------------------------------------

Number of tracks:  9
Official DR value: DR10

Samplerate:        48000 Hz
Channels:          2
Bits per sample:   24
Bitrate:           1554 kbps
Codec:             FLAC
================================================================================
No seeders - write personal message to M0p94ok. Any questions - support@pro-jazz.com.
Нет сидеров - пишите в личку M0p94ok. Есть вопросы - support@pro-jazz.com
17:35
92
Нет комментариев. Ваш будет первым!