Поиск

2015 Massimo Farao’ Trio - Io Che Non Vivo Senza Te {Venus} [DSD64 ISO]

2015 Massimo Farao’ Trio - Io Che Non Vivo Senza Te {Venus} [DSD64 ISO]
Стили:
Дата записи диска:
1 апреля 2015
Место записи:
Pianopiano Studios, Torino, Italy
Дата издания диска:
4 ноября 2015
Издатель (лейбл):
Номер по каталогу:
VHCD-1177
Битрейт аудио:
lossless

Треклист:

01. Io Che Non Vivo Senza Te 06:13
02. Che Cosa C'e 04:40
03. Sapore Di Sale 06:21
04. Amore Baciami 05:23
05. Quando 04:37
06. Il Nostro Concerto 05:01
07. Roma Nun Fa La Stupida Stasera 03:39
08. Non Ti Fidar Di Un Bacio A Mezzanotte 05:52
09. La Canzone Di Marinella 06:36
10. Io Che Amo Solo Te 04:45

Доп. инфо:

Формат записи/Источник записи: [SACD-R][OF]
Наличие водяных знаков: Нет
Год издания/переиздания диска: 2015
Продолжительность: 00:52:59
Наличие сканов в содержимом раздачи: Только обложка альбома
Контейнер: ISO (*.iso)
Тип рипа: image
Разрядность: 64(2,8 MHz/1 Bit)
Формат: DSD
Количество каналов: 2.0Доп. информация: venusrecords
Источник (релизер): jazzy pic

Лог проверки качества
foobar2000 1.6.4 / Dynamic Range Meter 1.1.1
log date: 2021-03-14 15:49:02

--------------------------------------------------------------------------------
Analyzed: MASSIMO FARAO' TRIO / Io Che Non Vivo Senza Te
--------------------------------------------------------------------------------

DR         Peak         RMS     Duration Track
--------------------------------------------------------------------------------
DR8       -4.18 dB   -12.93 dB      6:12 01-Io Che Non Vivo Senza Te
DR8       -4.59 dB   -14.65 dB      4:39 02-Che Cosa C'e
DR7       -4.04 dB   -12.46 dB      6:20 03-Sapore Di Sale
DR7       -4.01 dB   -12.98 dB      5:22 04-Amore Baciami
DR8       -4.26 dB   -13.70 dB      4:36 05-Quando
DR7       -3.88 dB   -12.42 dB      5:00 06-Il Nostro Concerto
DR7       -4.30 dB   -12.65 dB      3:38 07-Roma Nun Fa La Stupida Stasera
DR7       -4.00 dB   -12.49 dB      5:51 08-Non Ti Fidar Di Un Bacio A Mezzanotte
DR7       -3.97 dB   -13.26 dB      6:34 09-La Canzone Di Marinella
DR8       -4.26 dB   -14.22 dB      4:46 10-Io Che Amo Solo Te
--------------------------------------------------------------------------------

Number of tracks:  10
Official DR value: DR7

Samplerate:        2822400 Hz / PCM Samplerate: 352800 Hz
Channels:          2
Bits per sample:   1
Bitrate:           5645 kbps
Codec:             DSD64
================================================================================
Приватный:
Нет (DHT включён)
Размер:
3.31 Гб (3,555,380,551 байт) » файлов: 19
Участники:
0 раздают, 0 качают (0 участников всего)
Внешние участники:
18 раздают, 6 качают (24 участников всего) [ Обновить ]
No seeders - write personal message to M0p94ok. Any questions - support@pro-jazz.com.
Нет сидеров - пишите в личку M0p94ok. Есть вопросы - support@pro-jazz.com
09:40
60
Нет комментариев. Ваш будет первым!