Поиск

2019 Daniel Murray - Universo Musical de Egberto Gismonti {Carmo, ECM} [24-96]

2019 Daniel Murray - Universo Musical de Egberto Gismonti {Carmo, ECM} [24-96]
Стили:
Дата записи диска:
1 апреля 2018
Место записи:
Estúdio Visom Digital, Rio de Janeiro, Brazil
Дата издания диска:
23 августа 2019
Издатель (лейбл):
Номер по каталогу:
ECM 158376
Носитель:
WEB
Формат:
PCM
Тип рипа:
tracks
Контейнер:
FLAC (*.flac)
Количество каналов:
2.0
Разрядность/ЧД:
24/96
Битрейт аудио:
lossless
Время звучания:
01:09:54
Наличие сканов:
буклет pdf
Наличие водяных знаков:
нет
Страна-производитель диска (релиза):
Germany
Релизёр (источник):
M0p94ok

Треклист:

01. Forrobodó  06:25
02. Carmem  04:21
03. Sete Anéis  07:28
04. Maracatu  07:41
05. Memória E Fado  04:46
06. Frevo  04:51
07. Água E Vinho  05:58
08. Baião Malandro  04:42
09. A Fala Da Paixão  04:43
10. Choro  04:01
11. Dom Quixote  05:30
12. Saudações  02:43
13. Palhaço  06:41

Лог проверки качества
foobar2000 1.6.2 / Dynamic Range Meter 1.1.1
log date: 2021-05-23 11:07:10

--------------------------------------------------------------------------------
Analyzed: Daniel Murray / Universo Musical de Egberto Gismonti
--------------------------------------------------------------------------------

DR         Peak         RMS     Duration Track
--------------------------------------------------------------------------------
DR18      -0.50 dB   -23.11 dB      6:25 01-Forrobodó
DR18      -2.55 dB   -25.56 dB      4:22 02-Carmem
DR18      -2.35 dB   -26.94 dB      7:29 03-Sete Anéis
DR19      -0.50 dB   -24.95 dB      7:41 04-Maracatu
DR13      -7.41 dB   -27.60 dB      4:46 05-Memória E Fado
DR17      -1.73 dB   -23.06 dB      4:52 06-Frevo
DR16      -6.97 dB   -28.71 dB      5:58 07-Água E Vinho
DR20      -0.54 dB   -26.43 dB      4:42 08-Baião Malandro
DR15      -8.78 dB   -27.62 dB      4:43 09-A Fala Da Paixão
DR14      -7.32 dB   -26.07 dB      4:02 10-Choro
DR16      -6.89 dB   -28.96 dB      5:30 11-Dom Quixote
DR18      -1.99 dB   -24.64 dB      2:44 12-Saudações
DR16      -6.59 dB   -27.43 dB      6:41 13-Palhaço
--------------------------------------------------------------------------------

Number of tracks:  13
Official DR value: DR17

Samplerate:        96000 Hz
Channels:          2
Bits per sample:   24
Bitrate:           2377 kbps
Codec:             FLAC
================================================================================
Приватный:
Нет (DHT включён)
Размер:
1.19 Гб (1,273,822,905 байт) » файлов: 16
Участники:
1 раздают, 0 качают (1 участников всего)
Внешние участники:
--- [ Обновить ]
No seeders - write personal message to M0p94ok. Нет сидеров - пишите в личку M0p94ok.
11:12
39
Нет комментариев. Ваш будет первым!