Поиск

2021 Agnes Lakatos Special Zone - I’m Just Singing a Song {Hunnia} [24-192]

2021 Agnes Lakatos Special Zone - I’m Just Singing a Song {Hunnia} [24-192]
Стили:
Дата издания диска:
12 марта 2021
Битрейт аудио:
lossless
Доп. инфо:

• Формат записи | Источник записи: [TR24][OF]
• Наличие водяных знаков: Нет
• Год издания релиза: 2021
• Лейбл: Hunnia Records
• Продолжительность: 00:47:58
• Источник: internet
• WEB релиз: ссылка
• Контейнер: FLAC (*.flac)
• Тип рипа: tracks
• Разрядность: 24/192
• Формат: PCM
• Количество каналов: 2.0
• Наличие сканов: front + booklet

Лог проверки качества
foobar2000 1.4.2 / Dynamic Range Meter 1.1.1
log date: 2021-03-14 20:06:17

--------------------------------------------------------------------------------
Analyzed: Agnes Lakatos Special Zone / I’m Just Singing a Song
--------------------------------------------------------------------------------

DR         Peak         RMS     Duration Track
--------------------------------------------------------------------------------
DR13      -6.20 dB   -23.91 dB      5:17 01-Danger Zone
DR14      -6.41 dB   -23.36 dB      6:39 02-Folk’s Fun
DR13      -8.54 dB   -29.14 dB      3:48 03-Farewell
DR14      -6.59 dB   -23.11 dB      5:22 04-Forbidden Zone
DR12      -6.84 dB   -22.11 dB      3:55 05-I’m Just Singing a Song
DR14      -6.64 dB   -24.35 dB      6:18 06-Dance of Boots
DR12      -7.03 dB   -26.06 dB      6:37 07-Without a Pedal - In Memoriam Istvan Regos
DR14      -8.69 dB   -25.93 dB      5:49 08-Winter Solstice
DR13      -6.62 dB   -23.36 dB      4:14 09-No-one is Just a Stranger
--------------------------------------------------------------------------------

Number of tracks:  9
Official DR value: DR13

Samplerate:        192000 Hz
Channels:          2
Bits per sample:   24
Bitrate:           5110 kbps
Codec:             FLAC
================================================================================
No seeders - write personal message to M0p94ok. Any questions - support@pro-jazz.com.
Нет сидеров - пишите в личку M0p94ok. Есть вопросы - support@pro-jazz.com
10:19
61
Нет комментариев. Ваш будет первым!