Поиск

2014 Acoustic Alchemy - Live In London {Onside} [24-44.1]

2014 Acoustic Alchemy - Live In London {Onside} [24-44.1]
Дата издания диска:
6 апреля 2014
Битрейт аудио:
lossless
Доп. инфо:

Формат записи/Источник записи: [TR24][OF]
Год издания/переиздания диска: 2014
Издатель (лейбл): Onside Records 2
Продолжительность: 01:55:43
Наличие сканов в содержимом раздачи: Нет

Контейнер: FLAC (*.flac)
Тип рипа: tracks
Разрядность: 24/44,1
Количество каналов: 2.0

Источник (релизер): Qobuz

Лог проверки качества
foobar2000 1.4 / Dynamic Range Meter 1.1.1
log date: 2021-01-09 06:34:32

--------------------------------------------------------------------------------
Analyzed: Acoustic Alchemy / Live In London
--------------------------------------------------------------------------------

DR         Peak         RMS     Duration Track
--------------------------------------------------------------------------------
DR9        0.00 dB   -11.05 dB      3:59 01-Homecoming (Live)
DR7        0.00 dB    -9.19 dB      5:43 02-Overnight Sleeper (Live)
DR9        0.00 dB   -11.32 dB      7:19 03-Angel Of The South (Live)
DR9        0.00 dB   -11.77 dB      7:20 04-Jamaica Heartbeat (Live)
DR9        0.00 dB   -10.50 dB      4:44 05-Roseland (Live)
DR9        0.00 dB   -11.71 dB      5:29 06-One For Shorty (Live)
DR10       0.00 dB   -13.71 dB      7:53 07-Passion Play (Live)
DR8        0.00 dB   -11.55 dB      9:04 08-Ariane (Live)
DR20      -0.02 dB   -24.65 dB      4:43 09-Band Introductions (Live)
DR13      -0.05 dB   -15.99 dB      5:32 10-Sand On Her Toes (Live)
DR10       0.00 dB   -11.02 dB      4:14 11-Marrakesh (Live)
DR13       0.00 dB   -15.37 dB      5:28 12-Stone Circle (Live)
DR8        0.00 dB   -12.09 dB      7:02 13-A Kinder Loving (Live)
DR9        0.00 dB   -10.71 dB      7:02 14-No Messin' (Live)
DR9        0.00 dB   -10.92 dB      6:48 15-The Beautiful Game (Live)
DR7        0.00 dB    -9.79 dB      9:50 16-Tuff Puzzle (Live)
DR8        0.00 dB   -11.42 dB      4:40 17-Templemeads (Live)
DR9        0.00 dB   -13.10 dB      8:59 18-Lazeez (Live)
--------------------------------------------------------------------------------

Number of tracks:  18
Official DR value: DR10

Samplerate:        44100 Hz
Channels:          2
Bits per sample:   24
Bitrate:           1554 kbps
Codec:             FLAC
================================================================================
No seeders - write personal message to M0p94ok. Any questions - support@pro-jazz.com.
Нет сидеров - пишите в личку M0p94ok. Есть вопросы - support@pro-jazz.com
13:15
75
Нет комментариев. Ваш будет первым!