Поиск

2019 Paula Morelenbaum - Atlantico {Skip} [24-96]

2019 Paula Morelenbaum - Atlantico {Skip} [24-96]
Стили:
Треклист:

01 - Se e Tarde Me Perdoa 2:30
02 - Nao Tem Nada Nao 3:34
03 - Vento Bravo 3:56
04 - Quem Me Dera 4:33
05 - Que Reste-T-Il de nos Amours 4:58
06 - Agua e Vinho 3:43
07 - Influencia do Jazz 2:49
08 - Samba de uma Nota 3:02
09 - Sou Voce 3:44
10 - Reza 4:19
11 - Amanhecendo 3:56
12 - The Man I Love 5:05

Доп. инфо:

Формат записи/Источник записи: [TR24][OF]
Наличие водяных знаков: Нет
Издание: HD
Год издания/переиздания диска: 2019
Жанр: Jazz, Bossa Nova
Издатель (лейбл): SKIP Records
Продолжительность: 00:46:09
Наличие сканов в содержимом раздачи: Нет

Контейнер: FLAC (*.flac)
Тип рипа: tracks
Разрядность: 24/96
Количество каналов: 2.0

Источник (релизер): https://www.qobuz.com/gb-en/album/atlantico-paula-morelenbaum-joo-kraus-ralf-schmid/vjp0d2fa8zhwb

 

Лог проверки качества
foobar2000 1.3.16 / Dynamic Range Meter 1.1.1
log date: 2019-06-14 05:44:50

--------------------------------------------------------------------------------
Analyzed: Paula Morelenbaum / Atlantico
--------------------------------------------------------------------------------

DR         Peak         RMS     Duration Track
--------------------------------------------------------------------------------
DR8       -0.15 dB   -10.37 dB      2:30 01-Se e Tarde Me Perdoa
DR8       -0.15 dB    -9.32 dB      3:34 02-Nao Tem Nada Nao
DR9       -0.16 dB   -10.56 dB      3:57 03-Vento Bravo
DR8       -0.19 dB   -10.17 dB      4:33 04-Quem Me Dera
DR11      -0.20 dB   -14.22 dB      4:58 05-Que Reste-T-Il de nos Amours
DR11      -0.20 dB   -13.73 dB      3:44 06-Agua e Vinho
DR7       -0.18 dB    -8.87 dB      2:49 07-Influencia do Jazz
DR8       -0.18 dB    -9.70 dB      3:02 08-Samba de uma Nota
DR6       -0.17 dB    -8.77 dB      3:45 09-Sou Voce
DR7       -0.15 dB    -9.81 dB      4:20 10-Reza
DR11      -0.19 dB   -12.64 dB      3:57 11-Amanhecendo
DR12      -0.20 dB   -15.47 dB      5:06 12-The Man I Love
--------------------------------------------------------------------------------

Number of tracks:  12
Official DR value: DR9

Samplerate:        96000 Hz
Channels:          2
Bits per sample:   24
Bitrate:           2571 kbps
Codec:             FLAC
================================================================================
Приватный:
Нет (DHT включён)
Размер:
867.24 Мб (909,365,271 байт) » файлов: 15
Участники:
0 раздают, 0 качают (0 участников всего)
Внешние участники:
--- [ Обновить ]
Нет сидеров - пишите личное сообщение M0p94ok. Не нравятся торренты? Участники группы Pro-jazz Club могут заказать прямую ссылку на скачивание из облака.
No seeders - write a personal message to M0p94ok. Don't like torrents? Members of Pro-jazz Club group can order a direct download link from the cloud.
12:36
22
Нет комментариев. Ваш будет первым!