Поиск

2016 Emil Brandqvist Trio - Falling Crystals {Skip} [24-48]

2016 Emil Brandqvist Trio - Falling Crystals {Skip} [24-48]
Треклист:

01. While We Are Here (5:06)
02. Soaring (3:49)
03. Crystals (4:00)
04. Through the Forest (3:38)
05. The Sea Begins to Freeze (5:55)
06. Longing (5:05)
07. A Day in Memories (8:50)
08. Across the Waters (4:14)
09. Early Spring (3:47)
10. Shine (3:37)
11. Guds Gröna Ängar (4:19)
12. The Oak Trees (6:08)

Доп. инфо:

Формат записи/Источник записи: [TR24][OF]
Наличие водяных знаков: Нет
Год издания/переиздания диска: 2016
Жанр: contemporary jazz, modern creative, piano trio
Издатель (лейбл): Skip Records
Продолжительность: 00:58:28
Наличие сканов в содержимом раздачи: front
Источник (релизер): qobuz

Контейнер: FLAC (*.flac)
Тип рипа: tracks
Разрядность: 24/48
Формат: PCM
Количество каналов: 2.0

Можно сказать, что основатель Emil Brandqvist Trio, шведский композитор и исполнитель Эмиль Брандквист при своей склонности к тихой игре на барабанах в большей степени является художником звука, нежели «парнем, задающим ритм». Попирая амбиции, ему хватает смелости ставить в творческом процессе мелодию на первое место, параллельно объединяя в своих композициях джазовые гармонии с фольклорными веяниями далекого севера. В состав трио Эмиля Брандквиста, кроме него самого входят финский пианист Туомас А. Турунен и шведский бас-гитарист Макс Торнберг. В настоящее время коллектив Emil Brandqvist Trio считается одним из самых успешных фортепианных трио в Европе.

Доп. информация: https://skiprecords.com/site/artists/emil-brandqvist

Лог проверки качества
foobar2000 1.3.7 / Dynamic Range Meter 1.1.1
log date: 2019-06-20 03:43:32

--------------------------------------------------------------------------------
Analyzed: Emil Brandqvist Trio / Falling Crystals
--------------------------------------------------------------------------------

DR         Peak         RMS     Duration Track
--------------------------------------------------------------------------------
DR10      -0.10 dB   -12.25 dB      5:06 01-While We Are Here
DR10      -0.12 dB   -13.44 dB      3:49 02-Soaring
DR10      -1.09 dB   -14.24 dB      4:00 03-Crystals
DR8       -0.10 dB    -9.94 dB      3:38 04-Through the Forest
DR10      -0.10 dB   -13.14 dB      5:55 05-The Sea Begins to Freeze
DR11      -1.40 dB   -16.78 dB      5:05 06-Longing
DR8       -0.10 dB   -11.50 dB      8:50 07-A Day in Memories
DR10      -0.10 dB   -14.37 dB      4:14 08-Across the Waters
DR11      -0.15 dB   -13.42 dB      3:47 09-Early Spring
DR8       -0.10 dB   -10.17 dB      3:37 10-Shine
DR11      -0.10 dB   -14.82 dB      4:19 11-Guds Gröna Ängar
DR11      -0.10 dB   -14.74 dB      6:08 12-The Oak Trees
--------------------------------------------------------------------------------

Number of tracks:  12
Official DR value: DR10

Samplerate:        48000 Hz
Channels:          2
Bits per sample:   24
Bitrate:           1607 kbps
Codec:             FLAC
================================================================================
Приватный:
Нет (DHT включён)
Размер:
674.81 Мб (707,592,801 байт) » файлов: 15
Участники:
0 раздают, 0 качают (0 участников всего)
Внешние участники:
--- [ Обновить ]
Есть вопросы - пишите личное сообщение пользователю M0p94ok.
13:20
26
Нет комментариев. Ваш будет первым!