Поиск

2019 Chihiro Yamanaka - Prima Del Tramonto {Universal} [24-96]

2019 Chihiro Yamanaka - Prima Del Tramonto {Universal} [24-96]
Стили:
Треклист:

01. Gennarino (5:02)
02. Pasolini (5:23)
03. Thinking of You (5:39)
04. Never (5:05)
05. Cherokee (4:22)
06. Sweet Love of Mine (5:08)
07. Looking Up (6:37)
08. Blue Minor (4:03)
09. Solitude / C Jam Blues (4:41)
10. Prima Del Tramonto (3:13)

Доп. инфо:

Формат записи/Источник записи: [TR24][OF]
Наличие водяных знаков: Нет
Год издания: 2019
Издатель (лейбл): UNIVERSAL MUSIC LLC
Продолжительность: 00:49:09
Наличие сканов в содержимом раздачи: Только обложка альбома
Контейнер: FLAC (*.flac)
Тип рипа: tracks
Разрядность: 24/96
Формат: PCM
Количество каналов: 2.0
Источник (релизер): qobuz.com

Лог проверки качества
foobar2000 1.4 / Dynamic Range Meter 1.1.1
log date: 2019-08-18 16:06:32

--------------------------------------------------------------------------------
Analyzed: Chihiro Yamanaka / Prima Del Tramonto
--------------------------------------------------------------------------------

DR         Peak         RMS     Duration Track
--------------------------------------------------------------------------------
DR10      -0.27 dB   -11.94 dB      5:02 01-Gennarino
DR11      -0.27 dB   -13.62 dB      5:23 02-Pasolini
DR10      -0.26 dB   -13.43 dB      5:39 03-Thinking Of You
DR11      -0.26 dB   -13.87 dB      5:05 04-Never
DR8       -0.25 dB   -10.61 dB      4:22 05-Cherokee
DR9       -0.27 dB   -10.91 dB      5:08 06-Sweet Love Of Mine
DR9       -0.27 dB   -11.45 dB      6:37 07-Looking Up
DR10      -0.27 dB   -11.81 dB      4:03 08-Blue Minor
DR11      -0.27 dB   -15.78 dB      4:41 09-Solitude / C Jam Blues
DR11      -0.27 dB   -13.87 dB      3:13 10-Prima Del Tramonto
--------------------------------------------------------------------------------

Number of tracks:  10
Official DR value: DR10
Samplerate:        96000 Hz
Channels:          2
Bits per sample:   24
Bitrate:           2961 kbps
Codec:             FLAC
================================================================================
Приватный:
Нет (DHT включён)
Размер:
1.04 Гб (1,121,369,026 байт) » файлов: 12
Участники:
0 раздают, 0 качают (0 участников всего)
Внешние участники:
--- [ Обновить ]
Нет сидеров - пишите личное сообщение M0p94ok. Не нравятся торренты? Участники группы Pro-jazz Club могут заказать прямую ссылку на скачивание из облака.
No seeders - write a personal message to M0p94ok. Don't like torrents? Members of Pro-jazz Club group can order a direct download link from the cloud.
22:16
84
Нет комментариев. Ваш будет первым!