Поиск

1961 Baby Face Willette - Face To Face (2019) {Blue Note} [24-96]

1961 Baby Face Willette - Face To Face (2019) {Blue Note} [24-96]
Стили:
Дата записи диска:
30 января 1961
Место записи:
The Van Gelder Studio, Englewood Cliffs, NJ
Издатель (лейбл):
Треклист:

1. Swingin’ At Sugar Ray’s 06:32
2. Goin’ Down 07:24
3. Whatever Lola Wants 07:19
4. Face To Face 06:14
5. Somethin’ Strange 06:41
6. High ‘N Low 07:05

Доп. инфо:

Формат записи/Источник записи: [TR24][OF]
Издание: Remastered
Год издания/переиздания диска: 1961/2019
Жанр: Jazz
Издатель (лейбл): Blue Note
Продолжительность: 00:41:31
Наличие сканов в содержимом раздачи: Нет

Контейнер: FLAC (*.flac)
Тип рипа: tracks
Разрядность: 24/96
Количество каналов: 2.0

Источник (релизер): https://www.prostudiomasters.com/album/page/35539

Лог проверки качества
foobar2000 1.3.16 / Dynamic Range Meter 1.1.1
log date: 2019-06-07 02:46:19

--------------------------------------------------------------------------------
Analyzed: "Baby Face" Willette / Face To Face
--------------------------------------------------------------------------------

DR         Peak         RMS     Duration Track
--------------------------------------------------------------------------------
DR11      -0.27 dB   -15.56 dB      6:34 01-Swingin' At Sugar Ray's
DR12      -1.30 dB   -17.81 dB      7:27 02-Goin' Down
DR12      -1.61 dB   -17.26 dB      7:23 03-Whatever Lola Wants
DR11      -0.20 dB   -15.18 dB      6:18 04-Face To Face
DR11      -0.90 dB   -15.60 dB      6:44 05-Somethin' Strange
DR11      -0.92 dB   -16.76 dB      7:08 06-High 'N Low
--------------------------------------------------------------------------------

Number of tracks:  6
Official DR value: DR11

Samplerate:        96000 Hz
Channels:          2
Bits per sample:   24
Bitrate:           2762 kbps
Codec:             FLAC
================================================================================
Приватный:
Нет (DHT включён)
Размер:
835.74 Мб (876,337,452 байт) » файлов: 9
Участники:
0 раздают, 0 качают (0 участников всего)
Внешние участники:
--- [ Обновить ]
Нет сидеров - пишите личное сообщение M0p94ok. Не нравятся торренты? Участники группы Pro-jazz Club могут заказать прямую ссылку на скачивание из облака.
No seeders - write a personal message to M0p94ok. Don't like torrents? Members of Pro-jazz Club group can order a direct download link from the cloud.
15:17
7
Нет комментариев. Ваш будет первым!