Поиск

2017 Aki Rissanen - Another North {Edition} [24-96]

2017 Aki Rissanen - Another North {Edition} [24-96]
Стили:
Треклист:

1. Blind Desert  06:47
2. John's Sons  06:04
3. New Life And Other Beginnings  03:55
4. Étude 5: Arc-en-ciel Reimagined  05:01
5. Nature Of The Beast  07:40
6. Before The Aftermath  06:28
7. Hubble Bubble  07:08

Доп. инфо:

Формат записи/Источник записи: [TR24][OF]
Наличие водяных знаков: Нет
Год издания/переиздания диска: 2017
Жанр: Jazz
Издатель (лейбл): Edition Records
Продолжительность: 43:07
Наличие сканов в содержимом раздачи: Только обложка альбома
Источник (релизер): ProStudioMasters

Контейнер: FLAC (*.flac)
Тип рипа: tracks
Разрядность: 24/96
Формат: PCM
Количество каналов: 2.0

 

Лог проверки качества
foobar2000 1.3.7 / Dynamic Range Meter 1.1.1
log date: 2017-11-16 22:57:39

--------------------------------------------------------------------------------
Analyzed: Aki Rissanen / Another North
--------------------------------------------------------------------------------

DR         Peak         RMS     Duration Track
--------------------------------------------------------------------------------
DR11      -0.30 dB   -13.85 dB      6:47 01-Blind Desert
DR13      -0.43 dB   -15.85 dB      6:05 02-John's Sons
DR13      -0.37 dB   -15.35 dB      3:55 03-New Life And Other Beginnings
DR14      -0.30 dB   -18.39 dB      5:02 04-Étude 5 Arc-en-ciel Reimagined
DR11      -0.37 dB   -15.06 dB      7:41 05-Nature Of The Beast
DR12      -0.47 dB   -15.33 dB      6:28 06-Before The Aftermath
DR12      -0.30 dB   -15.71 dB      7:09 07-Hubble Bubble
--------------------------------------------------------------------------------

Number of tracks:  7
Official DR value: DR12

Samplerate:        96000 Hz
Channels:          2
Bits per sample:   24
Bitrate:           2910 kbps
Codec:             FLAC
================================================================================
Приватный:
Нет (DHT включён)
Размер:
880.81 Мб (923,591,657 байт) » файлов: 9
Участники:
1 раздают, 0 качают (1 участников всего)
Внешние участники:
--- [ Обновить ]
Нет сидеров - пишите личное сообщение M0p94ok. Не нравятся торренты? Участники группы Pro-jazz Club могут заказать прямую ссылку на скачивание из облака.
No seeders - write a personal message to M0p94ok. Don't like torrents? Members of Pro-jazz Club group can order a direct download link from the cloud.
14:49
11
Нет комментариев. Ваш будет первым!