Поиск

2019 Kenny Burrell - Introducing Kenny Burrell {Blue Note} [24-96]

2019 Kenny Burrell - Introducing Kenny Burrell {Blue Note} [24-96]
Стили:
Издатель (лейбл):
Треклист:

1. This Time The Dream's On Me (04:55)
2. Fugue 'N Blues (06:50)
3. Takeela (04:25)
4. Weaver Of Dreams (04:40)
5. Delilah (06:00)
6. Rhythmorama (06:25)
7. Blues For Skeeter (08:02)

Доп. инфо:

Формат записи/Источник записи: [TR24][OF]
Наличие водяных знаков: Нет
Год издания: 2019
Жанр: Jazz, Hard Bop
Издатель (лейбл): Blue Note Records
Продолжительность: 00:41:17
Наличие сканов в содержимом раздачи: Только обложка альбома
Контейнер: FLAC (*.flac)
Тип рипа: tracks
Разрядность: 24/96
Формат: PCM
Количество каналов: 2.0
Источник (релизер): highresaudio.com

Лог проверки качества
foobar2000 1.4 / Dynamic Range Meter 1.1.1
log date: 2019-08-18 07:58:15

--------------------------------------------------------------------------------
Analyzed: Kenny Burrell / Introducing Kenny Burrell
--------------------------------------------------------------------------------

DR         Peak         RMS     Duration Track
--------------------------------------------------------------------------------
DR10      -1.10 dB   -13.61 dB      4:57 01-This Time The Dream's On Me
DR13       0.00 dB   -16.52 dB      6:49 02-Fugue 'N Blues
DR11      -1.10 dB   -14.63 dB      4:19 03-Takeela
DR13      -0.86 dB   -18.01 dB      4:44 04-Weaver Of Dreams
DR11      -1.36 dB   -14.89 dB      6:03 05-Delilah
DR13      -0.53 dB   -16.33 dB      6:29 06-Rhythmorama
DR12      -1.04 dB   -15.79 dB      8:07 07-Blues For Skeeter
--------------------------------------------------------------------------------

Number of tracks:  7
Official DR value: DR12
Samplerate:        96000 Hz
Channels:          2
Bits per sample:   24
Bitrate:           2830 kbps
Codec:             FLAC
================================================================================
Приватный:
Нет (DHT включён)
Размер:
875.68 Мб (918,218,263 байт) » файлов: 9
Участники:
0 раздают, 0 качают (0 участников всего)
Внешние участники:
--- [ Обновить ]
Нет сидеров - пишите личное сообщение M0p94ok. Не нравятся торренты? Участники группы Pro-jazz Club могут заказать прямую ссылку на скачивание из облака.
No seeders - write a personal message to M0p94ok. Don't like torrents? Members of Pro-jazz Club group can order a direct download link from the cloud.
08:55
31
Нет комментариев. Ваш будет первым!