Поиск

1953 Peggy Lee - Black Coffee With Peggy Lee (2019) {RevOla} [24-44,1]

1953 Peggy Lee - Black Coffee With Peggy Lee (2019) {RevOla} [24-44,1]
Стили:
Треклист:

01 - Black Coffee 3:06
02 - I've Got You Under My Skin 2:29
03 - Easy Living 2:43
04 - My Heart Belongs to Daddy 2:07
05 - It Ain't Necessarily So 3:23
06 - Gee Baby (Ain't I Good to You) 3:22
07 - A Woman Alone with the Blues 3:13
08 - I Didn't Know What Time It Was 2:17
09 - When the World Was Young 3:19
10 - Love Me or Leave Me 2:09
11 - You're My Thrill 3:22
12 - There's a Small Hotel 2:48

Доп. инфо:

Формат записи/Источник записи: [TR24][OF]
Наличие водяных знаков: Нет
Издание: Remastered
Год издания/переиздания диска: 1953/2019
Жанр: Vocal Jazz
Издатель (лейбл): RevOla
Продолжительность: 00:34:55
Наличие сканов в содержимом раздачи: Нет

Контейнер: FLAC (*.flac)
Тип рипа: tracks
Разрядность: 24/44,1
Количество каналов: 2.0

Источник (релизер): https://www.onkyomusic.com/GB/artist/peggy-lee/release/black-coffee-7018992

Лог проверки качества
foobar2000 1.3.16 / Dynamic Range Meter 1.1.1
log date: 2019-05-15 20:45:15

--------------------------------------------------------------------------------
Analyzed: Peggy Lee / Black Coffee With Peggy Lee
--------------------------------------------------------------------------------

DR         Peak         RMS     Duration Track
--------------------------------------------------------------------------------
DR11      -1.11 dB   -15.79 dB      3:11 01-Black Coffee
DR11      -1.14 dB   -13.96 dB      2:33 02-I've Got You Under My Skin
DR12      -1.84 dB   -17.00 dB      2:48 03-Easy Living
DR9       -1.39 dB   -14.08 dB      2:10 04-My Heart Belongs to Daddy
DR14      -1.40 dB   -18.70 dB      3:26 05-It Ain't Necessarily So
DR12      -1.65 dB   -17.15 dB      3:26 06-Gee, Baby, Ain't I Good to You?
DR12      -2.12 dB   -18.13 dB      3:18 07-A Woman Alone with the Blues
DR11      -1.67 dB   -16.57 dB      2:21 08-I Didn't Know What Time It Was
DR12      -1.69 dB   -18.50 dB      3:21 09-When the World Was Young
DR10      -1.36 dB   -13.47 dB      2:10 10-Love Me or Leave Me
DR13      -2.03 dB   -18.36 dB      3:27 11-You're My Thrill
DR12      -1.83 dB   -16.84 dB      2:51 12-There's a Small Hotel
--------------------------------------------------------------------------------

Number of tracks:  12
Official DR value: DR12

Samplerate:        44100 Hz
Channels:          2
Bits per sample:   24
Bitrate:           1176 kbps
Codec:             FLAC
================================================================================
Приватный:
Нет (DHT включён)
Размер:
299.20 Мб (313,729,442 байт) » файлов: 15
Участники:
0 раздают, 0 качают (0 участников всего)
Внешние участники:
--- [ Обновить ]
Нет сидеров - пишите личное сообщение M0p94ok. Не нравятся торренты? Участники группы Pro-jazz Club могут заказать прямую ссылку на скачивание из облака.
No seeders - write a personal message to M0p94ok. Don't like torrents? Members of Pro-jazz Club group can order a direct download link from the cloud.
14:00
21
Нет комментариев. Ваш будет первым!